查看: 387|回复: 8

[剧情片] 亡国神盾舰 Aegis.2005.JAPANESE.1080p.BluRay.x264.DTS-FGT 11.58GB

[复制链接]

 成长值: 4620

级别:资源管理组

注册时间
2017-10-20
最后登录
2020-3-28
听众
1
收听
0
主题
94092
蓝光币
122830 枚
贡献
18456 点
发表于 4 天前 | 显示全部楼层 |阅读模式
亡国神盾舰 Aegis.2005.JAPANESE.1080p.BluRay.x264.DTS-FGT 11.58GB-1.png

译  名 亡国神盾舰
片  名 亡国のイージス
年  代 2005
产  地 日本
类  别 剧情 / 行动 / 惊悚 / 战争
语  言 日语
上映日期 2005-07-30
IMDb评分  5.5/10 from 226 users
IMDb链接  https://www.imdb.com/title/tt0457643
豆瓣评分 5.8/10 from 273 users
豆瓣链接 https://movie.douban.com/subject/1452738/
导  演 阪本顺治 Junji Sakamoto
编  剧 长谷川康夫 / 饭田健三郎
主  演 真田广之 Hiroyuki Sanada
       寺尾聪 Akira Terao
       安藤政信 Masanobu Ando


标  签 日本 | 战争 | 日本电影 | 安藤政信 | 真田广之 | 2005 | 阪本顺治 | 海战

简  介  

  海不扬波的一天,日本海上侵占队的舰队按例举行结合练习,谁知装备了最新防御系统矶风号出现异常。先是普通舰员和舰长遇害,继而得知某国的队日奸细教官龙华,照顾能力强大的炸弹GUSOH奥秘登舰,追被劫持矶风号攻击东京。在副舰长宫津弘隆二(寺尾聪 饰)和沟口(中井贵一 饰)等人的号令下,船员们纷纷乘救生艇逃生,却不知沟口的真正身份正是龙华,宫津则是他的密切战友。他们全速向都城圈进步,并向日本政府提出了3点要求。与此同时,退役于矶风号的前伍长仙石恒史(真田广之 饰)偷偷潜回本舰,以一己之力和这群可骇份子展开周旋……
  本片按照福井晴敏的同名原著改编。

获奖情况  

  第29届日本电影学院奖(2006)
  最好影片(提名)
  最好导演(提名) 阪本顺治
  最好编剧(提名) 饭田健三郎 / 长谷川康夫
  最好男配角(提名) 真田广之
  最好男配角(提名) 中井贵一
  最好配乐(提名) 崔佛·琼斯
  最好摄影(提名) 笠松则通
  最好美术指导(提名) 原田满生
  最好照明(提名) 石田健司
  最好录音(提名) 桥本文雄
  最好剪辑(提名) William M. Anderson
  最好新人 胜地凉
  1. Video
  2. ID                                       : 1
  3. Format                                   : AVC
  4. Format/Info                              : Advanced Video Codec
  5. Format profile                           : High@L4
  6. Format settings                          : CABAC / 4 Ref Frames
  7. Format settings, CABAC                   : Yes
  8. Format settings, Reference frames        : 4 frames
  9. Codec ID                                 : V_MPEG4/ISO/AVC
  10. Duration                                 : 2 h 7 min
  11. Bit rate                                 : 11.5 Mb/s
  12. Width                                    : 1 916 pixels
  13. Height                                   : 792 pixels
  14. Display aspect ratio                     : 2.40:1
  15. Frame rate mode                          : Constant
  16. Frame rate                               : 23.976 (24000/1001/189150) FPS
  17. Color space                              : YUV
  18. Chroma subsampling                       : 4:2:0
  19. Bit depth                                : 8 bits
  20. Scan type                                : Progressive
  21. Bits/(Pixel*Frame)                       : 0.316
  22. Stream size                              : 10.2 GiB (88%)
  23. Title                                    : Aegis.2005.JAPANESE.1080p.BluRay.x264.DTS-FGT
  24. Writing library                          : x264 core 148 r2795M aaa9aa8
  25. Encoding settings                        : cabac=1 / ref=4 / deblock=1:-2:-2 / analyse=0x3:0x113 / me=umh / subme=9 / psy=1 / psy_rd=1.00:0.15 / mixed_ref=1 / me_range=16 / chroma_me=1 / trellis=2 / 8x8dct=1 / cqm=0 / deadzone=21,11 / fast_pskip=1 / chroma_qp_offset=-3 / threads=24 / lookahead_threads=3 / sliced_threads=0 / nr=0 / decimate=1 / interlaced=0 / bluray_compat=0 / constrained_intra=0 / bframes=3 / b_pyramid=2 / b_adapt=1 / b_bias=0 / direct=3 / weightb=1 / open_gop=0 / weightp=2 / keyint=250 / keyint_min=25 / scenecut=40 / intra_refresh=0 / rc_lookahead=50 / rc=2pass / mbtree=1 / bitrate=11500 / ratetol=1.0 / qcomp=0.60 / qpmin=0 / qpmax=69 / qpstep=4 / cplxblur=20.0 / qblur=0.5 / vbv_maxrate=31250 / vbv_bufsize=31250 / nal_hrd=none / filler=0 / ip_ratio=1.40 / aq=1:1.00
  26. Language                                 : Japanese
  27. Default                                  : Yes
  28. Forced                                   : No

  29. Audio
  30. ID                                       : 2
  31. Format                                   : DTS
  32. Format/Info                              : Digital Theater Systems
  33. Codec ID                                 : A_DTS
  34. Duration                                 : 2 h 7 min
  35. Bit rate mode                            : Constant
  36. Bit rate                                 : 1 509 kb/s
  37. Channel(s)                               : 6 channels
  38. Channel layout                           : C L R Ls Rs LFE
  39. Sampling rate                            : 48.0 kHz
  40. Frame rate                               : 93.750 FPS (512 SPF)
  41. Bit depth                                : 16 bits
  42. Compression mode                         : Lossy
  43. Stream size                              : 1.34 GiB (12%)
  44. Title                                    : Aegis.2005.JAPANESE.1080p.BluRay.x264.DTS-FGT
  45. Language                                 : Japanese
  46. Default                                  : Yes
  47. Forced                                   : No

  48. Text
  49. ID                                       : 3
  50. Format                                   : UTF-8
  51. Codec ID                                 : S_TEXT/UTF8
  52. Codec ID/Info                            : UTF-8 Plain Text
  53. Duration                                 : 1 h 58 min
  54. Bit rate                                 : 201 b/s
  55. Count of elements                        : 4415
  56. Stream size                              : 175 KiB (0%)
  57. Language                                 : English
  58. Default                                  : Yes
  59. Forced                                   : No

  60. Menu
  61. 00:00:00.000                             : en:Chapter 01
  62. 00:05:05.222                             : en:Chapter 02
  63. 00:08:46.025                             : en:Chapter 03
  64. 00:12:45.264                             : en:Chapter 04
  65. 00:16:21.981                             : en:Chapter 05
  66. 00:22:13.666                             : en:Chapter 06
  67. 00:28:02.723                             : en:Chapter 07
  68. 00:35:55.278                             : en:Chapter 08
  69. 00:39:57.770                             : en:Chapter 09
  70. 00:45:03.034                             : en:Chapter 10
  71. 00:53:38.090                             : en:Chapter 11
  72. 01:00:11.775                             : en:Chapter 12
  73. 01:03:26.136                             : en:Chapter 13
  74. 01:10:22.510                             : en:Chapter 14
  75. 01:14:27.046                             : en:Chapter 15
  76. 01:19:21.507                             : en:Chapter 16
  77. 01:26:45.909                             : en:Chapter 17
  78. 01:34:09.477                             : en:Chapter 18
  79. 01:40:34.904                             : en:Chapter 19
  80. 01:45:56.392                             : en:Chapter 20
  81. 01:49:10.961                             : en:Chapter 21
  82. 01:55:34.803                             : en:Chapter 22
  83. 01:58:41.531                             : en:Chapter 23
  84. 02:02:06.986                             : en:Chapter 24
复制代码

亡国神盾舰 Aegis.2005.JAPANESE.1080p.BluRay.x264.DTS-FGT 11.58GB-2.png 亡国神盾舰 Aegis.2005.JAPANESE.1080p.BluRay.x264.DTS-FGT 11.58GB-3.png 亡国神盾舰 Aegis.2005.JAPANESE.1080p.BluRay.x264.DTS-FGT 11.58GB-4.png






回复

使用道具 举报

级别:初级观众 Lv.1

注册时间
2020-3-15
最后登录
2020-3-24
听众
1
收听
0
主题
0
蓝光币
0 枚
贡献
0 点
发表于 4 天前 | 显示全部楼层

楼主太厉害了!楼主,电影应该很好看我觉得中国高清电影网真是个好地方!
回复

使用道具 举报

级别:专业龙套 Lv.4

注册时间
2019-11-25
最后登录
2020-3-28
听众
1
收听
0
主题
0
蓝光币
400 枚
贡献
0 点
发表于 4 天前 | 显示全部楼层

楼主太厉害了!楼主,电影应该很好看我觉得中国高清电影网真是个好地方!
回复

使用道具 举报

 成长值: 290

级别:尊贵的会员

注册时间
2020-3-1
最后登录
2020-3-28
听众
1
收听
0
主题
0
蓝光币
124 枚
贡献
0 点
发表于 4 天前 | 显示全部楼层
楼主发贴辛苦了,谢谢楼主分享!我觉得中国高清电影网是注册对了!
回复

使用道具 举报

级别:群众演员 Lv.3

注册时间
2019-11-24
最后登录
2020-3-28
听众
1
收听
0
主题
0
蓝光币
80 枚
贡献
0 点
发表于 3 天前 | 显示全部楼层

这东西我收了!谢谢楼主!中国高清电影网真好!
回复

使用道具 举报

级别:普通观众 Lv.2

注册时间
2020-2-23
最后登录
2020-3-28
听众
2
收听
0
主题
0
蓝光币
11 枚
贡献
0 点
发表于 3 天前 | 显示全部楼层
非常喜欢,谢谢了
回复

使用道具 举报

级别:专业龙套 Lv.4

注册时间
2019-1-23
最后登录
2020-3-27
听众
15
收听
0
主题
0
蓝光币
455 枚
贡献
0 点
发表于 3 天前 | 显示全部楼层

这东西我收了!谢谢楼主!中国高清电影网真好!
回复

使用道具 举报

级别:群众演员 Lv.3

注册时间
2019-12-20
最后登录
2020-3-28
听众
1
收听
0
主题
0
蓝光币
67 枚
贡献
0 点
QQ
发表于 3 天前 | 显示全部楼层

楼主太厉害了!楼主,电影应该很好看我觉得中国高清电影网真是个好地方!
回复

使用道具 举报

级别:群众演员 Lv.3

注册时间
2018-1-11
最后登录
2020-3-28
听众
4
收听
0
主题
0
蓝光币
141 枚
贡献
0 点
发表于 前天 12:59 | 显示全部楼层
楼主发贴辛苦了,谢谢楼主分享!我觉得中国高清电影网是注册对了!
回复

使用道具 举报

懒得打字嘛,点击右侧快捷回复 【右侧内容,后台自定义】
您需要登录后才可以回帖 登录 | 立即注册

本版积分规则

Archiver|手机版|小黑屋| 中国高清网 ( ICP备17007870号-2 ) |网站地图

GMT+8, 2020-3-28 19:25 , Processed in 0.157757 second(s), 39 queries .

Powered by HDchina X3.4

Copyright 2017-2019©HDchina.All right reserved

返回顶部 联系我们