查看: 73|回复: 4

[剧情片] 尘行者 The.Dustwalker.2019.720p.BluRay.x264.DTS-FGT 4.65GB

[复制链接]

 成长值: 4620

级别:资源管理组

注册时间
2017-10-20
最后登录
2020-3-28
听众
1
收听
0
主题
94092
蓝光币
122830 枚
贡献
18456 点
发表于 4 天前 | 显示全部楼层 |阅读模式
尘行者 The.Dustwalker.2019.720p.BluRay.x264.DTS-FGT 4.65GB-1.png - R: ]( z2 q9 b4 a5 f
# C+ f: Q% S, o2 S8 c: Q/ I
译  名 尘行者 / The Dust Walker4 Z6 `5 Z) |" w# ~) d
片  名 The Dustwalker
* q" {2 ^2 T- @8 ]/ l! E年  代 2019/ _; o9 k2 Y0 m4 `5 W9 B1 x$ \
产  地 澳大利亚 Australia2 `( m$ s3 v# p: A# `  y7 R
类  别 剧情 / 科幻( N5 v! d8 J- n+ W; J
语  言 英语2 D6 g! |) N# W0 A. o0 {5 x
上映日期 2019-10-12(澳大利亚)
1 Z, m2 i2 o, F& E8 \IMDb评分  4.3/10 from 505 users
2 x. i  |2 ~" G- C4 N7 m# v5 wIMDb链接  https://www.imdb.com/title/tt6816388) B. ?, z$ `5 j* X& ^
豆瓣评分 0/10 from 0 users. p$ ^; b" ]# p0 r! r
豆瓣链接 https://movie.douban.com/subject/34962436/" N$ \: k! @* w' ]3 J. k0 v
导  演 Sandra Sciberras, G' F" C, X! [2 U& U9 J
编  剧 Sandra Sciberras
8 O# p; v; [9 u" }6 d2 l; i# c主  演 Jolene Anderson
1 ^6 K& u6 M2 k& j7 n       斯黛芬·道森 Stef Dawson
2 h: y" T" z7 _: C       Talina Naviede  K7 F+ c% f6 k4 v* i0 A! P- j

+ L3 U1 `2 x) n6 ^6 j7 s' {' E$ e
6 r' m3 D7 H: @, H. M. P. w6 I标  签 烂片 | 澳大利亚 | 画质极佳一剧情烂爆 | 可骇 | 渣滓 | [歐美]
  Q. c( H! \& U, l  r% b- m& s* E* u3 B; u: u
简  介  
: x. r: m# {3 n8 i- d8 `2 o
' y+ c6 g0 g: j# |  An alien spacecraft crash-lands in an isolated town in the middle of the harsh desert. It’s protected content is damaged, releasing an insidious parasite that attacks the brain of all creatures including humans, making them disorientated, unnaturally strong, and violent if that’s where the subconscious takes them.
. F! X/ z3 n# `1 L
  1. Video, U4 ]; _) n1 K  `7 s9 H9 }
  2. ID                                       : 1# Y! k( C6 I( N8 Z8 H6 S
  3. Format                                   : AVC
    % o/ K. I- F: A/ G" a
  4. Format/Info                              : Advanced Video Codec
    + P0 Q9 s4 s. O- @  G8 Y6 j
  5. Format profile                           : High@L4
    ) O8 y* h1 P( Y; @
  6. Format settings                          : CABAC / 4 Ref Frames
    1 {% C4 c8 M. y# b/ s
  7. Format settings, CABAC                   : Yes3 w  z3 j1 A) J7 L- ^
  8. Format settings, Reference frames        : 4 frames
    2 r% r  D' [. [3 g1 s* b9 p* ?
  9. Codec ID                                 : V_MPEG4/ISO/AVC
    : m$ L# v. e7 H, l/ ?6 f
  10. Duration                                 : 1 h 34 min
    7 p9 y/ o, I5 i4 V$ N& n
  11. Bit rate                                 : 5 500 kb/s" J1 _( @" B, ]9 T$ C; f
  12. Width                                    : 1 280 pixels# P4 U0 g' J1 Q* V  Y, W
  13. Height                                   : 536 pixels
    / K2 @0 i/ Z& B4 h9 J# T
  14. Display aspect ratio                     : 2.40:15 A/ a& n/ q  v/ O! k6 }
  15. Frame rate mode                          : Constant
    # T' T+ v% e* {. F, I' y) D  E3 U! \
  16. Frame rate                               : 23.976 (24000/1001/189150) FPS1 k/ X0 q- |! u, w1 s
  17. Color space                              : YUV$ J% `0 B- l9 ]1 x; W8 c3 k, b8 c
  18. Chroma subsampling                       : 4:2:0
    , z( P- x2 D# |4 u+ `
  19. Bit depth                                : 8 bits2 x! ?. {' n% h$ T
  20. Scan type                                : Progressive) z% {* ]: M2 {. @0 O: o
  21. Bits/(Pixel*Frame)                       : 0.334/ R# t4 m$ Z0 _. E0 l( n" A: J9 X6 Z
  22. Stream size                              : 3.65 GiB (78%)
    7 e3 E1 ?& G$ F0 C
  23. Title                                    : The.Dustwalker.2019.720p.BluRay.x264.DTS-FGT8 [# x$ {7 L1 H% S
  24. Writing library                          : x264 core 148 r2795M aaa9aa8
    $ P9 o$ h+ J& F6 M& j. V7 |4 a5 _( R
  25. Encoding settings                        : cabac=1 / ref=4 / deblock=1:-2:-2 / analyse=0x3:0x113 / me=umh / subme=9 / psy=1 / psy_rd=1.00:0.15 / mixed_ref=1 / me_range=16 / chroma_me=1 / trellis=2 / 8x8dct=1 / cqm=0 / deadzone=21,11 / fast_pskip=1 / chroma_qp_offset=-3 / threads=24 / lookahead_threads=3 / sliced_threads=0 / nr=0 / decimate=1 / interlaced=0 / bluray_compat=0 / constrained_intra=0 / bframes=3 / b_pyramid=2 / b_adapt=1 / b_bias=0 / direct=3 / weightb=1 / open_gop=0 / weightp=2 / keyint=250 / keyint_min=25 / scenecut=40 / intra_refresh=0 / rc_lookahead=50 / rc=2pass / mbtree=1 / bitrate=5500 / ratetol=1.0 / qcomp=0.60 / qpmin=0 / qpmax=69 / qpstep=4 / cplxblur=20.0 / qblur=0.5 / vbv_maxrate=31250 / vbv_bufsize=31250 / nal_hrd=none / filler=0 / ip_ratio=1.40 / aq=1:1.00
    * S2 c5 a0 n. U/ h' @* x
  26. Language                                 : English
    ; f' Z6 |& {, j) t
  27. Default                                  : Yes" Y  }+ `' [2 D2 |" u
  28. Forced                                   : No
    * B# b) ~# m# a" z4 @7 @6 E' i
  29. & @* B) f0 P: M2 e6 V: \' x7 A7 `
  30. Audio! `! l: X: P  V0 h
  31. ID                                       : 24 {* A- O/ U6 H6 M! Z: b
  32. Format                                   : DTS) a/ w5 c9 b2 h' p9 b
  33. Format/Info                              : Digital Theater Systems6 N5 F; a5 u2 u' S& P) q
  34. Codec ID                                 : A_DTS
    5 X& ?9 F& \$ q
  35. Duration                                 : 1 h 34 min! F2 t4 t4 C* O. N& f" z# i& H  }
  36. Bit rate mode                            : Constant
    / B4 D5 L0 `/ E* s0 t$ z2 N
  37. Bit rate                                 : 1 509 kb/s5 e+ S) \. [6 x& i1 p8 Z, F: `1 B
  38. Channel(s)                               : 6 channels
    ! s% a! u) `# Z2 r
  39. Channel layout                           : C L R Ls Rs LFE7 F! m( x1 g& M( I
  40. Sampling rate                            : 48.0 kHz! B) ?6 [" a) ]. \* r7 \" J
  41. Frame rate                               : 93.750 FPS (512 SPF)
    $ ]. z+ o4 f8 r( L2 q
  42. Bit depth                                : 24 bits
    # W$ |# A4 e8 C6 Y. _2 R( W2 W
  43. Compression mode                         : Lossy
    8 u' a5 A& n% F7 `3 H2 t9 w
  44. Stream size                              : 1 024 MiB (22%)0 \1 V1 U8 O- j8 @# w9 @8 U: E% ]
  45. Title                                    : The.Dustwalker.2019.720p.BluRay.x264.DTS-FGT! X5 `6 z1 {3 ^& p9 {# T; Z( [
  46. Language                                 : English, u$ Q* L$ M/ _
  47. Default                                  : No
    5 i& r. E/ H% s% h9 x8 ~
  48. Forced                                   : No
      Q$ J! {+ f$ v9 J

  49. # y% o5 L5 @# L3 m7 e5 B, z$ x
  50. Text
    0 h% m' e2 o- ]4 ~) z
  51. ID                                       : 3; |2 K3 W4 G/ O, G' P# E2 i
  52. Format                                   : UTF-8  v6 ^- H* b: I6 ~- o
  53. Codec ID                                 : S_TEXT/UTF82 b3 c9 o( I' ~  {  y
  54. Codec ID/Info                            : UTF-8 Plain Text
    4 R+ ^0 \# }' U+ w% v' E
  55. Duration                                 : 1 h 31 min& e7 x- b4 u1 ?7 A
  56. Bit rate                                 : 37 b/s
    ; v- O; w: Z( @$ j
  57. Count of elements                        : 8541 r! C$ v8 j6 Z+ a4 \
  58. Stream size                              : 25.3 KiB (0%)5 t; v' z3 D' a8 x- w
  59. Language                                 : English9 S4 p% T. m- T
  60. Default                                  : Yes
    . C" q: ~9 M! g
  61. Forced                                   : No  H3 e* F( \1 T, o- W$ Q

  62. 9 w* o% E/ |8 Y, z
  63. Menu
    0 L; Y+ C3 X- j  Q9 k0 I) g7 Z
  64. 00:00:00.000                             : en:Chapter 014 t& g- E7 ?3 u) y* h
  65. 00:10:24.415                             : en:Chapter 021 ^- }  c1 b6 s1 m9 J
  66. 00:20:10.876                             : en:Chapter 03! G% |: W/ r5 ^
  67. 00:29:58.129                             : en:Chapter 04
    % E  i5 E! v8 J: w* q% |3 }$ M
  68. 00:40:24.964                             : en:Chapter 05
      [& ?0 G: A; ^
  69. 00:50:23.520                             : en:Chapter 06+ g2 B, Z9 k: u2 A
  70. 01:00:44.015                             : en:Chapter 071 t" ]3 e+ T$ ~
  71. 01:10:18.547                             : en:Chapter 083 V9 L/ |: K' K/ M) r
  72. 01:20:43.672                             : en:Chapter 09
    " D! S% [! \& [, S! \5 H. j" ?
  73. 01:31:03.791                             : en:Chapter 10
复制代码

0 n. k. X& `# @2 G0 E/ x, | 尘行者 The.Dustwalker.2019.720p.BluRay.x264.DTS-FGT 4.65GB-2.png 尘行者 The.Dustwalker.2019.720p.BluRay.x264.DTS-FGT 4.65GB-3.png 尘行者 The.Dustwalker.2019.720p.BluRay.x264.DTS-FGT 4.65GB-4.png
. v; M/ }% ]5 ]+ A. Z$ o1 ?
$ o" M0 _  ?( d2 ?/ Q8 X0 L4 w
3 _; M5 K. D/ j$ {3 y+ i( q  o0 ]- r
: i3 P0 h% J0 i# E

+ |# _# V4 R( Q$ \/ ?0 s  n- r5 T. E* P) D, @7 W
回复

使用道具 举报

级别:普通观众 Lv.2

注册时间
2020-2-3
最后登录
2020-3-24
听众
2
收听
0
主题
0
蓝光币
11 枚
贡献
0 点
发表于 4 天前 | 显示全部楼层

% v% {# q0 Z* A5 c' x$ s& E4 v楼主太厉害了!楼主,电影应该很好看我觉得中国高清电影网真是个好地方!
回复

使用道具 举报

级别:荣升主角 Lv.5

注册时间
2019-6-9
最后登录
2020-3-28
听众
8
收听
0
主题
0
蓝光币
128 枚
贡献
0 点
发表于 前天 10:46 | 显示全部楼层

. s6 L/ e6 l% T' H( l4 j- e( j/ s楼主太厉害了!楼主,电影应该很好看我觉得中国高清电影网真是个好地方!
回复

使用道具 举报

 成长值: 290

级别:尊贵的会员

注册时间
2020-3-1
最后登录
2020-3-28
听众
1
收听
0
主题
0
蓝光币
124 枚
贡献
0 点
发表于 前天 18:46 | 显示全部楼层
楼主发贴辛苦了,谢谢楼主分享!我觉得中国高清电影网是注册对了!
回复

使用道具 举报

级别:群众演员 Lv.3

注册时间
2018-10-4
最后登录
2020-3-27
听众
10
收听
0
主题
0
蓝光币
20 枚
贡献
0 点
发表于 昨天 02:14 | 显示全部楼层

* Q- @1 C9 z. |6 O楼主,大恩不言谢了!中国高清电影网是最棒的!
回复

使用道具 举报

懒得打字嘛,点击右侧快捷回复 【右侧内容,后台自定义】
您需要登录后才可以回帖 登录 | 立即注册

本版积分规则

Archiver|手机版|小黑屋| 中国高清网 ( ICP备17007870号-2 ) |网站地图

GMT+8, 2020-3-28 19:20 , Processed in 0.157243 second(s), 38 queries .

Powered by HDchina X3.4

Copyright 2017-2019©HDchina.All right reserved

返回顶部 联系我们