查看: 134|回复: 3

[动画片] 超人:红色之子/超人:苏联之子 Superman.Red.Son.2020.1080p.BluRay.REMUX.AVC.DTS-HD.MA.5.1-FGT 10.24GB

[复制链接]

 成长值: 5940

级别:资源管理组

注册时间
2017-10-20
最后登录
2020-7-2
听众
1
收听
0
主题
97211
蓝光币
165681 枚
贡献
21590 点
发表于 2020-3-15 17:19:39 | 显示全部楼层 |阅读模式
超人:红色之子/超人:苏联之子 Superman.Red.Son.2020.1080p.BluRay.REMUX.AVC.DTS-HD.MA.5.1-FGT 10.24GB-1.png

译  名 超人:红色之子 / 超人:苏联之子 / 超人:赤子
片  名 Superman: Red Son
年  代 2020
产  地 美国
类  别 动画
语  言 英语
上映日期 2020-02-25(美国)
IMDb评分  6.3/10 from 2635 users
IMDb链接  https://www.imdb.com/title/tt10985510
豆瓣评分 4.8/10 from 2799 users
豆瓣链接 https://movie.douban.com/subject/27668334/
片  长 85分钟
导  演 刘山姆 Sam Liu
编  剧 J·M·德马泰 J.M. DeMatteis / 马克·米勒 Mark Millar
主  演 詹森·艾萨克 Jason Isaacs
       艾米·阿克 Amy Acker
       感德里克·巴德 Diedrich Bader
       保罗·威廉姆斯 Paul Williams
       菲尔·拉马 Phil LaMarr
       罗杰·克莱格·史姑娘 Roger Craig Smith
       萨沙·罗伊茨 Sasha Roiz
       特拉维斯·威林厄姆 Travis Willingham
       雯特·艾娃·佐莉 Winter Ave Zoli
       菲尔·莫里斯 Phil Morris
       瓦内萨·马歇尔 Vanessa Marshall
       吉姆·麦司奇门 Jim Meskimen
       威廉·赛莱耶 William Salyers


标  签 DC | 动画 | 美国 | 漫画改编 | 超级豪杰 | 2020 | 科幻 | 大超

简  介  

  红子动画真的来了,典范DC漫画《超人:红色之子》动画版公布首张剧照,苏联超人亮相。
  杰森·伊萨克斯(《蝙蝠侠:红影迷踪》)配音超人,“根妹”艾米·阿克配音路易斯·莱恩,感德里克·巴元配音莱克斯·卢瑟,瓦内萨·马歇尔配音奇异女侠,罗杰·克莱格·史姑娘配音蝙蝠侠。
  《红子》由刘山姆(《超人之死》《超人王朝》)执导,将于明年第一季发碟和登陆数字平台。漫画来自马克·米拉,提出:假如超人不是下降在美国小镇,而是在乌克兰,长大成为了苏联带领人,胸前的S酿成镰刀和锤子,他和天下会是怎样?对社会主义、本钱主义、历史和人性的探讨相当成心机。
  1. Video
  2. ID                                       : 1
  3. Format                                   : AVC
  4. Format/Info                              : Advanced Video Codec
  5. Format profile                           : High@L4
  6. Format settings                          : CABAC / 4 Ref Frames
  7. Format settings, CABAC                   : Yes
  8. Format settings, Reference frames        : 4 frames
  9. Codec ID                                 : V_MPEG4/ISO/AVC
  10. Duration                                 : 1 h 24 min
  11. Bit rate mode                            : Variable
  12. Bit rate                                 : 13.0 Mb/s
  13. Maximum bit rate                         : 37.0 Mb/s
  14. Width                                    : 1 920 pixels
  15. Height                                   : 1 080 pixels
  16. Display aspect ratio                     : 16:9
  17. Frame rate mode                          : Constant
  18. Frame rate                               : 23.976 (24000/1001/189150) FPS
  19. Color space                              : YUV
  20. Chroma subsampling                       : 4:2:0
  21. Bit depth                                : 8 bits
  22. Scan type                                : Progressive
  23. Bits/(Pixel*Frame)                       : 0.261
  24. Stream size                              : 7.64 GiB (75%)
  25. Title                                    : Superman.Red.Son.2020.1080p.BluRay.REMUX.AVC.DTS-HD.MA.5.1-FGT
  26. Language                                 : English
  27. Default                                  : No
  28. Forced                                   : No

  29. Audio #1
  30. ID                                       : 2
  31. Format                                   : DTS XLL
  32. Format/Info                              : Digital Theater Systems
  33. Commercial name                          : DTS-HD Master Audio
  34. Codec ID                                 : A_DTS
  35. Duration                                 : 1 h 24 min
  36. Bit rate mode                            : Variable
  37. Bit rate                                 : 2 435 kb/s
  38. Channel(s)                               : 6 channels
  39. Channel layout                           : C L R Ls Rs LFE
  40. Sampling rate                            : 48.0 kHz
  41. Frame rate                               : 93.750 FPS (512 SPF)
  42. Bit depth                                : 16 bits
  43. Compression mode                         : Lossless
  44. Stream size                              : 1.43 GiB (14%)
  45. Title                                    : Superman.Red.Son.2020.1080p.BluRay.REMUX.AVC.DTS-HD.MA.5.1-FGT
  46. Language                                 : English
  47. Default                                  : Yes
  48. Forced                                   : No

  49. Audio #2
  50. ID                                       : 3
  51. Format                                   : AC-3
  52. Format/Info                              : Audio Coding 3
  53. Commercial name                          : Dolby Digital
  54. Codec ID                                 : A_AC3
  55. Duration                                 : 1 h 24 min
  56. Bit rate mode                            : Constant
  57. Bit rate                                 : 640 kb/s
  58. Channel(s)                               : 6 channels
  59. Channel layout                           : L R C LFE Ls Rs
  60. Sampling rate                            : 48.0 kHz
  61. Frame rate                               : 31.250 FPS (1536 SPF)
  62. Bit depth                                : 16 bits
  63. Compression mode                         : Lossy
  64. Stream size                              : 386 MiB (4%)
  65. Title                                    : Superman.Red.Son.2020.1080p.BluRay.REMUX.AVC.DTS-HD.MA.5.1-FGT
  66. Language                                 : French
  67. Service kind                             : Complete Main
  68. Default                                  : No
  69. Forced                                   : No

  70. Audio #3
  71. ID                                       : 4
  72. Format                                   : AC-3
  73. Format/Info                              : Audio Coding 3
  74. Commercial name                          : Dolby Digital
  75. Codec ID                                 : A_AC3
  76. Duration                                 : 1 h 24 min
  77. Bit rate mode                            : Constant
  78. Bit rate                                 : 640 kb/s
  79. Channel(s)                               : 6 channels
  80. Channel layout                           : L R C LFE Ls Rs
  81. Sampling rate                            : 48.0 kHz
  82. Frame rate                               : 31.250 FPS (1536 SPF)
  83. Bit depth                                : 16 bits
  84. Compression mode                         : Lossy
  85. Stream size                              : 386 MiB (4%)
  86. Title                                    : Superman.Red.Son.2020.1080p.BluRay.REMUX.AVC.DTS-HD.MA.5.1-FGT
  87. Language                                 : German
  88. Service kind                             : Complete Main
  89. Default                                  : No
  90. Forced                                   : No

  91. Audio #4
  92. ID                                       : 5
  93. Format                                   : AC-3
  94. Format/Info                              : Audio Coding 3
  95. Commercial name                          : Dolby Digital
  96. Codec ID                                 : A_AC3
  97. Duration                                 : 1 h 24 min
  98. Bit rate mode                            : Constant
  99. Bit rate                                 : 640 kb/s
  100. Channel(s)                               : 6 channels
  101. Channel layout                           : L R C LFE Ls Rs
  102. Sampling rate                            : 48.0 kHz
  103. Frame rate                               : 31.250 FPS (1536 SPF)
  104. Bit depth                                : 16 bits
  105. Compression mode                         : Lossy
  106. Stream size                              : 386 MiB (4%)
  107. Title                                    : Superman.Red.Son.2020.1080p.BluRay.REMUX.AVC.DTS-HD.MA.5.1-FGT
  108. Language                                 : Spanish
  109. Service kind                             : Complete Main
  110. Default                                  : No
  111. Forced                                   : No

  112. Text #1
  113. ID                                       : 6
  114. Format                                   : UTF-8
  115. Codec ID                                 : S_TEXT/UTF8
  116. Codec ID/Info                            : UTF-8 Plain Text
  117. Duration                                 : 1 h 20 min
  118. Bit rate                                 : 55 b/s
  119. Count of elements                        : 808
  120. Stream size                              : 32.4 KiB (0%)
  121. Title                                    : English-SRT
  122. Language                                 : English
  123. Default                                  : Yes
  124. Forced                                   : No

  125. Text #2
  126. ID                                       : 7
  127. Format                                   : PGS
  128. Muxing mode                              : zlib
  129. Codec ID                                 : S_HDMV/PGS
  130. Codec ID/Info                            : Picture based subtitle format used on BDs/HD-DVDs
  131. Duration                                 : 1 h 20 min
  132. Bit rate                                 : 34.2 kb/s
  133. Count of elements                        : 1780
  134. Stream size                              : 19.7 MiB (0%)
  135. Title                                    : English-PGS
  136. Language                                 : English
  137. Default                                  : No
  138. Forced                                   : No

  139. Text #3
  140. ID                                       : 8
  141. Format                                   : PGS
  142. Muxing mode                              : zlib
  143. Codec ID                                 : S_HDMV/PGS
  144. Codec ID/Info                            : Picture based subtitle format used on BDs/HD-DVDs
  145. Duration                                 : 1 h 23 min
  146. Bit rate                                 : 30.0 kb/s
  147. Count of elements                        : 1632
  148. Stream size                              : 17.9 MiB (0%)
  149. Title                                    : French-PGS
  150. Language                                 : French
  151. Default                                  : No
  152. Forced                                   : No

  153. Text #4
  154. ID                                       : 9
  155. Format                                   : PGS
  156. Muxing mode                              : zlib
  157. Codec ID                                 : S_HDMV/PGS
  158. Codec ID/Info                            : Picture based subtitle format used on BDs/HD-DVDs
  159. Duration                                 : 1 h 20 min
  160. Bit rate                                 : 41.2 kb/s
  161. Count of elements                        : 1842
  162. Stream size                              : 23.7 MiB (0%)
  163. Title                                    : German-PGS
  164. Language                                 : German
  165. Default                                  : No
  166. Forced                                   : No

  167. Text #5
  168. ID                                       : 10
  169. Format                                   : PGS
  170. Muxing mode                              : zlib
  171. Codec ID                                 : S_HDMV/PGS
  172. Codec ID/Info                            : Picture based subtitle format used on BDs/HD-DVDs
  173. Duration                                 : 1 h 23 min
  174. Bit rate                                 : 32.9 kb/s
  175. Count of elements                        : 1648
  176. Stream size                              : 19.7 MiB (0%)
  177. Title                                    : Spanish-PGS
  178. Language                                 : Spanish
  179. Default                                  : No
  180. Forced                                   : No

  181. Text #6
  182. ID                                       : 11
  183. Format                                   : PGS
  184. Muxing mode                              : zlib
  185. Codec ID                                 : S_HDMV/PGS
  186. Codec ID/Info                            : Picture based subtitle format used on BDs/HD-DVDs
  187. Duration                                 : 1 h 20 min
  188. Bit rate                                 : 357 b/s
  189. Count of elements                        : 22
  190. Stream size                              : 211 KiB (0%)
  191. Title                                    : French-FORCED-PGS
  192. Language                                 : French
  193. Default                                  : No
  194. Forced                                   : No

  195. Text #7
  196. ID                                       : 12
  197. Format                                   : PGS
  198. Muxing mode                              : zlib
  199. Codec ID                                 : S_HDMV/PGS
  200. Codec ID/Info                            : Picture based subtitle format used on BDs/HD-DVDs
  201. Duration                                 : 1 h 20 min
  202. Bit rate                                 : 292 b/s
  203. Count of elements                        : 20
  204. Stream size                              : 172 KiB (0%)
  205. Title                                    : German-FORCED-PGS
  206. Language                                 : German
  207. Default                                  : No
  208. Forced                                   : No

  209. Menu
  210. 00:00:00.000                             : en:Chapter 01
  211. 00:08:15.453                             : en:Chapter 02
  212. 00:16:59.852                             : en:Chapter 03
  213. 00:27:19.179                             : en:Chapter 04
  214. 00:38:09.954                             : en:Chapter 05
  215. 00:48:38.373                             : en:Chapter 06
  216. 00:56:55.620                             : en:Chapter 07
  217. 01:02:34.459                             : en:Chapter 08
  218. 01:12:30.596                             : en:Chapter 09
  219. 01:21:39.978                             : en:Chapter 10
复制代码

超人:红色之子/超人:苏联之子 Superman.Red.Son.2020.1080p.BluRay.REMUX.AVC.DTS-HD.MA.5.1-FGT 10.24GB-2.png 超人:红色之子/超人:苏联之子 Superman.Red.Son.2020.1080p.BluRay.REMUX.AVC.DTS-HD.MA.5.1-FGT 10.24GB-3.png 超人:红色之子/超人:苏联之子 Superman.Red.Son.2020.1080p.BluRay.REMUX.AVC.DTS-HD.MA.5.1-FGT 10.24GB-4.png






回复

使用道具 举报

 成长值: 1890

级别:尊贵的会员

注册时间
2020-3-1
最后登录
2020-7-2
听众
4
收听
0
主题
0
蓝光币
447 枚
贡献
0 点
发表于 2020-3-15 18:30:46 | 显示全部楼层
楼主发贴辛苦了,谢谢楼主分享!我觉得中国高清电影网是注册对了!
回复

使用道具 举报

级别:专业龙套 Lv.4

注册时间
2019-11-18
最后登录
2020-6-30
听众
2
收听
0
主题
0
蓝光币
393 枚
贡献
0 点
发表于 2020-3-16 08:27:52 | 显示全部楼层

这东西我收了!谢谢楼主!中国高清电影网真好!
回复

使用道具 举报

已抛锚 成长值: 300

级别:初级观众 Lv.1

注册时间
2020-4-10
最后登录
2020-6-30
听众
2
收听
0
主题
0
蓝光币
1 枚
贡献
0 点
发表于 前天 12:15 | 显示全部楼层

楼主太厉害了!楼主,电影应该很好看我觉得中国高清电影网真是个好地方!
回复

使用道具 举报

懒得打字嘛,点击右侧快捷回复 【右侧内容,后台自定义】
您需要登录后才可以回帖 登录 | 立即注册

本版积分规则

Archiver|手机版|小黑屋| 中国高清网 ( ICP备17007870号-2 ) |网站地图 

GMT+8, 2020-7-2 20:44 , Processed in 0.169152 second(s), 38 queries .

Powered by HDchina X3.4

Copyright 2017-2019©HDchina.All right reserved

返回顶部 联系我们