查看: 468|回复: 3

[犯罪片] 钱 Money.2019.720p.BluRay.x264-GiMCHi 5.47GB

[复制链接]

 成长值: 5940

级别:资源管理组

注册时间
2017-10-20
最后登录
2020-7-2
听众
1
收听
0
主题
97225
蓝光币
165705 枚
贡献
21604 点
发表于 2020-2-21 17:48:39 | 显示全部楼层 |阅读模式
钱 Money.2019.720p.BluRay.x264-GiMCHi 5.47GB-1.png 2 g. H0 w/ o6 {) a1 ^8 B: r4 ^7 E

5 [3 V$ U% u2 P3 }. U; \' A译  名 钱 / Money / 万诱金钱(港) / 金钱 / 钱力游戏(台)* E' j5 D$ r( U6 e# Q. u
片  名 ?
0 P# u8 P$ Z* s年  代 2019
9 a5 Y% v( u- f5 f0 M# U3 f产  地 韩国7 Y7 ~8 E! ~* x/ B8 M0 h
类  别 犯罪
9 j  i% o1 Z! C/ ]' O# S' w9 ~语  言 韩语
9 z2 g; B! M% t' y5 F5 w, E! t! f上映日期 2019-03-20(韩国)
" |6 w( p$ u  QIMDb评分  5.7/10 from 352 users+ [8 Z. n& w  D+ G) j
IMDb链接  https://www.imdb.com/title/tt6890618
# G) r: z4 u# r$ s3 t3 D3 y! M豆瓣评分 6.8/10 from 7696 users
( x3 K: }8 M0 z% |6 T1 s. c豆瓣链接 https://movie.douban.com/subject/26975855/: X' [) S) A- c, n" s( V0 f" p
片  长 115分钟1 {6 O6 u; T/ A; n1 A
导  演 朴世上 Noo-ri Park0 R/ p) c1 ^! }, k8 D: ]
编  剧 朴世上 Noo-ri Park
# L3 |: f% b) u& y; P' @: U主  演 柳俊烈 Jun-yeol Ryu
8 H* b0 ]; B( s: r2 w       刘智泰 Ji-tae Yu! i. g1 ?/ V4 {' l2 @
       赵宇镇 Woo-jin Jo
1 ?3 t0 K# [$ z: U0 N+ }       金宰英 Jae-young Kim7 Z+ e: [; B$ a
       金敏载 Kim Min-jae
1 a) [  J8 u5 i! ]5 \       郑满植 Man-shik Jeong* v& n, ^/ B4 x/ t' M1 F4 S
       元真儿 Jin-ah Won
* M' @' ?- T- o       金正洙 Jong-soo Kim
+ L( c0 U1 K$ J4 t/ v; W# N       孙钟学 Jong-Hak Son3 @3 z/ E, H& a! w+ l: L  K" a. [0 ~
       林世美 Se-Mi Im
5 T' Z. V+ b1 t2 _1 E1 r: a5 o$ P       朴明申 Park Myeong-shin- b! x! C0 z" v6 d+ Q' l. M# ~
9 p. G! Y% H/ _. v! b6 d3 T9 L0 y/ \. L: T

; t5 l5 K7 p* `' ^" U/ p* l% [标  签 韩国 | 犯罪 | 金融 | 2019 | 剧情 | 经济 | 人性 | 钱
: Z2 j* S+ r5 j8 L/ c8 w& [' w, [1 s! P4 a
简  介  6 G5 M$ f9 r( `! [0 `1 i  O

2 ~- u& x' W' p1 k" n$ P1 [  刘智泰、柳俊烈有望主演电影[钱],影片报告普通工薪族投身股票市场后卷入庞大诡计的故事,柳俊烈饰演工薪阶级仆人公,刘智泰饰演证券市场的暗箱操纵者。影片估计六月开拍,双方掮客公司均暗示已收到提案,正在积极会商。
/ Z+ |! q3 J1 Z1 _  k- p
  1. Video
    : |# O  `- e9 T4 R7 t
  2. ID                                       : 1
    " g. k9 }: f. `2 M' o
  3. Format                                   : AVC, n) V& r" y8 G6 g5 ?/ k
  4. Format/Info                              : Advanced Video Codec
    & R5 G) S+ M( k, k- \6 ?7 M- D
  5. Format profile                           : High@L4+ x: I- l1 d' R6 v9 W$ x# x6 v$ B
  6. Format settings                          : CABAC / 5 Ref Frames
    3 c0 f# k* L- u# e8 Z+ S; |; }0 A. D
  7. Format settings, CABAC                   : Yes
    * h& F( E% }/ A" E, v
  8. Format settings, Reference frames        : 5 frames
    7 v. b+ i* e5 Y" s& E( i
  9. Codec ID                                 : V_MPEG4/ISO/AVC* |( @7 b! Y1 u9 T! g; O: n
  10. Duration                                 : 1 h 55 min
    , Y, M4 F5 ~4 `; A) A; S( d
  11. Bit rate                                 : 5 282 kb/s& Y! L, _2 ]1 f+ @+ c
  12. Width                                    : 1 280 pixels9 t. g, S6 {& |; s
  13. Height                                   : 536 pixels& d1 [0 _/ Z" Q/ I/ J
  14. Display aspect ratio                     : 2.40:1
      g' F" g9 @( ^6 s
  15. Frame rate mode                          : Constant( b+ T* f* @' D! p: Z) T- A# `
  16. Frame rate                               : 23.976 (24000/1001) FPS
    / [& ^+ b/ B6 l- F) _
  17. Color space                              : YUV8 w+ @+ b6 f; W8 f, n: r) v
  18. Chroma subsampling                       : 4:2:0/ t& h, Q  ]2 a1 G
  19. Bit depth                                : 8 bits
    * P  T0 |0 I- Q1 X9 T" o/ R
  20. Scan type                                : Progressive
    + ]. Q. n( m0 m! t/ L: c
  21. Bits/(Pixel*Frame)                       : 0.321
    , ^" C6 T: I" h. Q: S  n
  22. Stream size                              : 4.25 GiB (78%)& q% q. g0 g/ k0 P1 H- H8 M$ S
  23. Writing library                          : x264 core 159 r2991 1771b55
    6 ?% J0 q% E( V1 G
  24. Encoding settings                        : cabac=1 / ref=5 / deblock=1:0:0 / analyse=0x3:0x133 / me=umh / subme=7 / psy=1 / psy_rd=1.00:0.00 / mixed_ref=1 / me_range=16 / chroma_me=1 / trellis=1 / 8x8dct=1 / cqm=0 / deadzone=21,11 / fast_pskip=0 / chroma_qp_offset=-2 / threads=12 / lookahead_threads=2 / sliced_threads=0 / nr=0 / decimate=1 / interlaced=0 / bluray_compat=0 / constrained_intra=0 / bframes=3 / b_pyramid=2 / b_adapt=2 / b_bias=0 / direct=3 / weightb=1 / open_gop=0 / weightp=2 / keyint=240 / keyint_min=23 / scenecut=40 / intra_refresh=0 / rc_lookahead=50 / rc=2pass / mbtree=1 / bitrate=5282 / ratetol=1.0 / qcomp=0.60 / qpmin=0 / qpmax=69 / qpstep=4 / cplxblur=20.0 / qblur=0.5 / ip_ratio=1.40 / aq=1:1.00) A3 E8 n: g. I& n; s- X# m9 I
  25. Language                                 : English
    0 Y! |- o1 U; |! u
  26. Default                                  : Yes
    * ?* g, r+ S8 x( z- M. r! K6 P
  27. Forced                                   : No
    % l% O, y" D( h" H( Z$ x8 a

  28. 1 a4 v4 X& ~5 n4 `, A# E5 Z! s4 O
  29. Audio
    & [8 e, [8 b. t! h. N$ Y
  30. ID                                       : 2' |/ [6 M5 }" Y8 x- I
  31. Format                                   : DTS, x5 P* A5 Y' y7 H, M, a8 \" d3 [
  32. Format/Info                              : Digital Theater Systems# J7 G7 Q' z  n/ H9 k5 @" _
  33. Codec ID                                 : A_DTS
    8 Y1 z. k1 ~: O8 o
  34. Duration                                 : 1 h 55 min% t$ i) x  H  h2 E5 s/ r
  35. Bit rate mode                            : Constant
    6 J% S3 y: ~' q9 I* a0 e
  36. Bit rate                                 : 1 509 kb/s
    & H+ [$ s% `+ w  [
  37. Channel(s)                               : 6 channels1 Y/ j3 f1 {' [5 I1 s
  38. Channel layout                           : C L R Ls Rs LFE
    % S$ ]) @6 C# ~0 h+ |  M" ^
  39. Sampling rate                            : 48.0 kHz) I0 `  `, N3 Z2 j# y/ a' ^/ P
  40. Frame rate                               : 93.750 FPS (512 SPF)
    ' I3 Y* Q0 a& t) B3 M6 O! R! Y* _
  41. Bit depth                                : 24 bits
    " g9 [. Z9 F, l  h
  42. Compression mode                         : Lossy- v- N$ K/ ^+ A9 _. z& m. D
  43. Stream size                              : 1.21 GiB (22%)
    ; j- m# Z: I/ ^/ ?- w5 x8 }& _
  44. Title                                    : Korean" g4 F& b1 W3 e+ i# @
  45. Language                                 : Korean
    0 g; R5 s& ?4 b& z
  46. Default                                  : Yes8 Y; a! E& h0 o" F7 o
  47. Forced                                   : No; e! `' v- K% z2 |
  48. 3 k7 z2 h  B  [9 k' F. W
  49. Text% A0 T" g2 M( d
  50. ID                                       : 3
    8 \2 ^( y  j; T7 A8 F" p- W$ U
  51. Format                                   : UTF-8
    7 Y2 D! M. v) [* d, Y
  52. Codec ID                                 : S_TEXT/UTF8
    9 \% E  d+ l! a; J8 [/ f, T
  53. Codec ID/Info                            : UTF-8 Plain Text6 \' @9 n% e1 ^& F' a9 G
  54. Duration                                 : 1 h 51 min( R* p- X+ q: l& K
  55. Bit rate                                 : 52 b/s
    ' {0 [, V' y& h6 H+ o5 I8 u
  56. Count of elements                        : 1369
    ! i3 d# T2 `9 F9 `  Z
  57. Stream size                              : 42.9 KiB (0%)) e2 }% L* C2 L
  58. Title                                    : English" H) e4 B* \1 _% T; s- ?
  59. Language                                 : English% J; ~1 Q1 h$ K: `
  60. Default                                  : Yes% w7 f- v1 t  Z
  61. Forced                                   : No
    , w  ?/ ]/ t5 R) U

  62. $ M! m' s5 q3 A
  63. Menu
    7 Y3 D. S6 j- L1 u! ~( p9 C
  64. 00:00:00.000                             : en:Chapter 01
    & o3 r" \  f7 Z6 ~
  65. 00:09:26.357                             : en:Chapter 028 M, ?' C+ g0 B6 c2 J5 j
  66. 00:22:13.249                             : en:Chapter 03
    4 e8 Z: z+ z1 U8 y
  67. 00:30:47.804                             : en:Chapter 04
    1 ^& m  t7 V6 x
  68. 00:42:35.845                             : en:Chapter 05
    3 g) X9 L+ m7 g0 ]# a
  69. 00:53:46.014                             : en:Chapter 06
    . q: ?% F$ c2 W8 T0 \- e6 ^
  70. 01:04:08.845                             : en:Chapter 073 o5 D) ~* L7 x$ }$ x* r7 O! V+ ^
  71. 01:12:56.372                             : en:Chapter 08' N6 r  y; [7 @
  72. 01:22:31.238                             : en:Chapter 09, ?7 @5 ^+ e  {& N4 R; T4 x
  73. 01:33:42.742                             : en:Chapter 10
    ! z0 D% x  j# H9 s: m
  74. 01:39:56.324                             : en:Chapter 11
    + i$ }; l9 W3 P8 l7 l3 G# l2 o$ I$ y
  75. 01:49:20.679                             : en:Chapter 12
复制代码

7 W' u1 L5 ]& _& l. y2 p 钱 Money.2019.720p.BluRay.x264-GiMCHi 5.47GB-2.png + |$ W  S0 I/ Z2 ~' _. T3 v8 W

- K4 J. V7 h$ S* p1 f5 c4 A' z7 o: i$ _  B, f' U

3 S; G; T7 `( m2 M
9 {  C- t: [$ T, X/ r5 A8 V% ], L( R& L& J; g8 c
  o  D  G0 y3 v! _: i: @& w
回复

使用道具 举报

级别:专业龙套 Lv.4

注册时间
2019-11-24
最后登录
2020-7-2
听众
2
收听
0
主题
0
蓝光币
225 枚
贡献
0 点
发表于 2020-2-28 10:00:09 | 显示全部楼层
9 }# J7 s' Z# M: d% \5 _4 M( j
楼主太厉害了!楼主,电影应该很好看我觉得中国高清电影网真是个好地方!
回复

使用道具 举报

级别:初级观众 Lv.1

注册时间
2020-4-6
最后登录
2020-6-30
听众
2
收听
0
主题
0
蓝光币
2 枚
贡献
0 点
发表于 前天 10:49 | 显示全部楼层
楼主发贴辛苦了,谢谢楼主分享!我觉得中国高清电影网是注册对了!
回复

使用道具 举报

级别:初级观众 Lv.1

注册时间
2020-4-6
最后登录
2020-6-30
听众
2
收听
0
主题
0
蓝光币
2 枚
贡献
0 点
发表于 前天 10:50 | 显示全部楼层
4 d8 r! b" F3 f4 `3 d9 r
楼主太厉害了!楼主,电影应该很好看我觉得中国高清电影网真是个好地方!
回复

使用道具 举报

懒得打字嘛,点击右侧快捷回复 【右侧内容,后台自定义】
您需要登录后才可以回帖 登录 | 立即注册

本版积分规则

Archiver|手机版|小黑屋| 中国高清网 ( ICP备17007870号-2 ) |网站地图 

GMT+8, 2020-7-2 21:21 , Processed in 0.166340 second(s), 38 queries .

Powered by HDchina X3.4

Copyright 2017-2019©HDchina.All right reserved

返回顶部 联系我们