查看: 24|回复: 0

[剧情片] 致命托儿所 Deadly.Daycare.2014.1080p.WEBRip.x264-RARBG 1.59GB

[复制链接]

 成长值: 4200

级别:资源管理组

注册时间
2017-10-20
最后登录
2020-2-26
听众
1
收听
0
主题
92868
蓝光币
104991 枚
贡献
17230 点
发表于 2020-2-15 15:23:38 | 显示全部楼层 |阅读模式
致命托儿所 Deadly.Daycare.2014.1080p.WEBRip.x264-RARBG 1.59GB-1.png

译  名 致命托儿所
片  名 Deadly Daycare
年  代 2014
产  地 美国
类  别 剧情 / 惊悚
语  言 英语
上映日期 2014-12-28(美国)
IMDb评分  4.9/10 from 385 users
IMDb链接  https://www.imdb.com/title/tt3455826
豆瓣评分 0/10 from 0 users
豆瓣链接 https://movie.douban.com/subject/26594714/
片  长 122分钟(中国)
导  演 迈克尔·费法 Michael Feifer
编  剧 迈克尔·费法 Michael Feifer
主  演 凯拉·伊薇儿 Kayla Ewell
       克里斯蒂·卡尔森·罗曼诺 Christy Carlson Romano
       拜斯·约翰逊 Bryce Johnson
       Ariella Nurkovic
       Isabella Nurkovic
       David Ulmer
       Tyler Rice
       卡亚·科利 Caia Coley
       Kimberly Arland
       Thomas Bell
       Michelle DeFraites
       罗伯特·吴 Robert Wu
       Ian Stanley
       Brock Burnett
       Kim Estes


标  签 美国 | 家庭 | 惊悚 | 本地 | 2019旁观 | 韩国 | 范冰冰 | 行动

简  介  

  在履历了几年的经济困难后,一位年轻的母亲决议回去工作,帮助她的前夫对付日益增加的账单。由于没有人照看他们四岁的女儿,这位母亲决议把她送到当地一家名为“小家伙”的日托中心,这家日托中心的仆人是一位看上去很负义务的老太婆。米娅的为难行为延续了几周后,瑞秋得出结论,她的女儿能够遭到了中心一位日托教员的凌虐。
  1. Video
  2. ID                                       : 1
  3. Format                                   : AVC
  4. Format/Info                              : Advanced Video Codec
  5. Format profile                           : High@L4
  6. Format settings                          : CABAC / 4 Ref Frames
  7. Format settings, CABAC                   : Yes
  8. Format settings, Reference frames        : 4 frames
  9. Codec ID                                 : avc1
  10. Codec ID/Info                            : Advanced Video Coding
  11. Duration                                 : 1 h 23 min
  12. Bit rate                                 : 2 500 kb/s
  13. Width                                    : 1 920 pixels
  14. Height                                   : 1 080 pixels
  15. Display aspect ratio                     : 16:9
  16. Frame rate mode                          : Constant
  17. Frame rate                               : 23.976 (23976/1000) FPS
  18. Color space                              : YUV
  19. Chroma subsampling                       : 4:2:0
  20. Bit depth                                : 8 bits
  21. Scan type                                : Progressive
  22. Bits/(Pixel*Frame)                       : 0.050
  23. Stream size                              : 1.45 GiB (92%)
  24. Writing library                          : x264 core 152 r2851M ba24899
  25. Encoding settings                        : cabac=1 / ref=4 / deblock=1:-1:-1 / analyse=0x3:0x113 / me=umh / subme=9 / psy=1 / psy_rd=1.00:0.15 / mixed_ref=1 / me_range=24 / chroma_me=1 / trellis=2 / 8x8dct=1 / cqm=0 / deadzone=21,11 / fast_pskip=1 / chroma_qp_offset=-3 / threads=16 / lookahead_threads=4 / sliced_threads=0 / nr=0 / decimate=1 / interlaced=0 / bluray_compat=0 / constrained_intra=0 / bframes=3 / b_pyramid=2 / b_adapt=2 / b_bias=0 / direct=3 / weightb=1 / open_gop=0 / weightp=2 / keyint=250 / keyint_min=25 / scenecut=40 / intra_refresh=0 / rc_lookahead=50 / rc=2pass / mbtree=1 / bitrate=2500 / ratetol=1.0 / qcomp=0.60 / qpmin=0 / qpmax=69 / qpstep=4 / cplxblur=20.0 / qblur=0.5 / vbv_maxrate=31250 / vbv_bufsize=31250 / nal_hrd=none / filler=0 / ip_ratio=1.40 / aq=3:1.00
  26. Encoded date                             : UTC 2020-02-15 01:36:58
  27. Tagged date                              : UTC 2020-02-15 01:36:58
  28. Codec configuration box                  : avcC

  29. Audio
  30. ID                                       : 2
  31. Format                                   : AAC LC
  32. Format/Info                              : Advanced Audio Codec Low Complexity
  33. Codec ID                                 : mp4a-40-2
  34. Duration                                 : 1 h 23 min
  35. Bit rate mode                            : Constant
  36. Bit rate                                 : 224 kb/s
  37. Channel(s)                               : 6 channels
  38. Channel layout                           : C L R Ls Rs LFE
  39. Sampling rate                            : 48.0 kHz
  40. Frame rate                               : 46.875 FPS (1024 SPF)
  41. Compression mode                         : Lossy
  42. Stream size                              : 133 MiB (8%)
  43. Language                                 : English
  44. Default                                  : Yes
  45. Alternate group                          : 1
  46. Encoded date                             : UTC 2020-02-15 01:36:58
  47. Tagged date                              : UTC 2020-02-15 01:36:58
复制代码

致命托儿所 Deadly.Daycare.2014.1080p.WEBRip.x264-RARBG 1.59GB-2.png 致命托儿所 Deadly.Daycare.2014.1080p.WEBRip.x264-RARBG 1.59GB-3.png 致命托儿所 Deadly.Daycare.2014.1080p.WEBRip.x264-RARBG 1.59GB-4.png






回复

使用道具 举报

懒得打字嘛,点击右侧快捷回复 【右侧内容,后台自定义】
您需要登录后才可以回帖 登录 | 立即注册

本版积分规则

Archiver|手机版|小黑屋| 中国高清网 |网站地图

GMT+8, 2020-2-27 11:52 , Processed in 0.148904 second(s), 37 queries .

Powered by HDchina X3.4

Copyright 2017-2019©HDchina.All right reserved

返回顶部 联系我们