查看: 21|回复: 0

[纪录片] 幽灵之城 City.of.Ghosts.2017.1080p.WEBRip.x264-RARBG 1.76GB

[复制链接]

 成长值: 4200

级别:资源管理组

注册时间
2017-10-20
最后登录
2020-2-27
听众
1
收听
0
主题
92868
蓝光币
105010 枚
贡献
17230 点
发表于 2020-2-15 15:14:19 | 显示全部楼层 |阅读模式
鬼魂之城 City.of.Ghosts.2017.1080p.WEBRip.x264-RARBG 1.76GB-1.png

译  名 鬼魂之城 / Miasto duchów
片  名 City of Ghosts
年  代 2017
产  地 美国
类  别 记载片
语  言 英语
上映日期 2017-01-24(圣丹斯电影节) / 2017-07-21(英国)
IMDb评分  7.4/10 from 3153 users
IMDb链接  https://www.imdb.com/title/tt6333056
豆瓣评分 8.1/10 from 215 users
豆瓣链接 https://movie.douban.com/subject/26928127/
片  长 92分钟
导  演 马修·海涅曼 Matthew Heineman
编  剧 马修·海涅曼 Matthew Heineman
主  演 阿布·巴克尔·巴格达迪 Abu Bakr Al-Baghdadi
       Hamoud
       Hassan
       Hussam
       Naji Jerf


标  签 记载片 | 美国 | 2017 | 叙利亚 | 政治 | 可骇份子 | 美国电影 | Documentary

简  介  

  This is the story of a new type of warfare: a battle over ideas, over hearts and minds, over clicks and views.
  《鬼魂城》(City of Ghosts) 导演:马修·海涅曼(Matthew Heineman) 入围2017年圣丹斯电影节

获奖情况  

  第71届英国电影学院奖(2018)
  电影奖 最好记载片(提名)

  第33届圣丹斯电影节(2017)
  评审团大奖 记载片(提名) 马修·海涅曼

  第70届美国导演工会奖(2018)
  最好记载片导演 马修·海涅曼

  第29届美国制片野生会奖(2018)
  最好记载片制片人奖(提名)

  第22届金卫星奖(2018)
  电影部分 最好记载片(提名)

  第30届芝加哥影评人协会奖(2017)
  最好记载片(提名)
  1. Video
  2. ID                                       : 1
  3. Format                                   : AVC
  4. Format/Info                              : Advanced Video Codec
  5. Format profile                           : High@L4
  6. Format settings                          : CABAC / 4 Ref Frames
  7. Format settings, CABAC                   : Yes
  8. Format settings, Reference frames        : 4 frames
  9. Codec ID                                 : avc1
  10. Codec ID/Info                            : Advanced Video Coding
  11. Duration                                 : 1 h 32 min
  12. Bit rate                                 : 2 500 kb/s
  13. Width                                    : 1 916 pixels
  14. Height                                   : 1 076 pixels
  15. Display aspect ratio                     : 16:9
  16. Frame rate mode                          : Constant
  17. Frame rate                               : 23.976 (23976/1000) FPS
  18. Color space                              : YUV
  19. Chroma subsampling                       : 4:2:0
  20. Bit depth                                : 8 bits
  21. Scan type                                : Progressive
  22. Bits/(Pixel*Frame)                       : 0.051
  23. Stream size                              : 1.61 GiB (92%)
  24. Writing library                          : x264 core 152 r2851M ba24899
  25. Encoding settings                        : cabac=1 / ref=4 / deblock=1:-1:-1 / analyse=0x3:0x113 / me=umh / subme=9 / psy=1 / psy_rd=1.00:0.15 / mixed_ref=1 / me_range=24 / chroma_me=1 / trellis=2 / 8x8dct=1 / cqm=0 / deadzone=21,11 / fast_pskip=1 / chroma_qp_offset=-3 / threads=16 / lookahead_threads=4 / sliced_threads=0 / nr=0 / decimate=1 / interlaced=0 / bluray_compat=0 / constrained_intra=0 / bframes=3 / b_pyramid=2 / b_adapt=2 / b_bias=0 / direct=3 / weightb=1 / open_gop=0 / weightp=2 / keyint=250 / keyint_min=25 / scenecut=40 / intra_refresh=0 / rc_lookahead=50 / rc=2pass / mbtree=1 / bitrate=2500 / ratetol=1.0 / qcomp=0.60 / qpmin=0 / qpmax=69 / qpstep=4 / cplxblur=20.0 / qblur=0.5 / vbv_maxrate=31250 / vbv_bufsize=31250 / nal_hrd=none / filler=0 / ip_ratio=1.40 / aq=3:1.00
  26. Encoded date                             : UTC 2020-02-14 22:00:44
  27. Tagged date                              : UTC 2020-02-14 22:00:44
  28. Codec configuration box                  : avcC

  29. Audio
  30. ID                                       : 2
  31. Format                                   : AAC LC
  32. Format/Info                              : Advanced Audio Codec Low Complexity
  33. Codec ID                                 : mp4a-40-2
  34. Duration                                 : 1 h 32 min
  35. Duration_LastFrame                       : -11 ms
  36. Bit rate mode                            : Constant
  37. Bit rate                                 : 224 kb/s
  38. Channel(s)                               : 6 channels
  39. Channel layout                           : C L R Ls Rs LFE
  40. Sampling rate                            : 48.0 kHz
  41. Frame rate                               : 46.875 FPS (1024 SPF)
  42. Compression mode                         : Lossy
  43. Stream size                              : 148 MiB (8%)
  44. Language                                 : English
  45. Default                                  : Yes
  46. Alternate group                          : 1
  47. Encoded date                             : UTC 2020-02-14 22:00:44
  48. Tagged date                              : UTC 2020-02-14 22:00:44
复制代码

鬼魂之城 City.of.Ghosts.2017.1080p.WEBRip.x264-RARBG 1.76GB-2.png 鬼魂之城 City.of.Ghosts.2017.1080p.WEBRip.x264-RARBG 1.76GB-3.png 鬼魂之城 City.of.Ghosts.2017.1080p.WEBRip.x264-RARBG 1.76GB-4.png






回复

使用道具 举报

懒得打字嘛,点击右侧快捷回复 【右侧内容,后台自定义】
您需要登录后才可以回帖 登录 | 立即注册

本版积分规则

Archiver|手机版|小黑屋| 中国高清网 |网站地图

GMT+8, 2020-2-27 13:07 , Processed in 0.136544 second(s), 37 queries .

Powered by HDchina X3.4

Copyright 2017-2019©HDchina.All right reserved

返回顶部 联系我们