查看: 21|回复: 0

[纪录片] 酷玩乐队:满脑子的梦想 Coldplay.A.Head.Full.of.Dreams.2018.1080p.WEBRip.x264-RARBG 1.99GB

[复制链接]

 成长值: 4200

级别:资源管理组

注册时间
2017-10-20
最后登录
2020-2-27
听众
1
收听
0
主题
92868
蓝光币
105016 枚
贡献
17230 点
发表于 2020-2-15 15:11:21 | 显示全部楼层 |阅读模式
酷玩乐队:满脑子的胡想 Coldplay.A.Head.Full.of.Dreams.2018.1080p.WEBRip.x264-RARBG 1.99GB-1.png

译  名 酷玩乐队:满脑子的胡想 / A Head Full of Dreams
片  名 Coldplay: A Head Full of Dreams
年  代 2018
产  地 英国
类  别 记载片
语  言 英语
上映日期 2018-11-14(英国)
IMDb评分  8.0/10 from 2227 users
IMDb链接  https://www.imdb.com/title/tt9095324
豆瓣评分 9.4/10 from 1671 users
豆瓣链接 https://movie.douban.com/subject/30349240/
片  长 115分钟
导  演 马特·怀克洛斯 Mat Whitecross
主  演 盖伊·贝瑞曼 Guy Berryman
       碧昂丝·诺尔斯 Beyoncé Knowles
       约翰·巴克兰德 Jon Buckland
       威尔·查平 Will Champion
       布莱恩·伊诺 Brian Eno
       诺尔·加拉格 Noel Gallagher
       Phil Harvey
       布鲁诺·马尔斯 Bruno Mars
       克里斯·马汀 Chris Martin
       格温妮斯·帕特洛 Gwyneth Paltrow
       马特·怀克洛斯 Mat Whitecross


标  签 coldplay | 记载片 | 音乐 | 摇滚 | 英国 | 列传 | 人物列传 | 2018

简  介  

  亚马逊出品的酷玩乐队(Coldplay)记载片《酷玩乐队:满脑子的胡想》曝光预告片。影片的拍摄横跨20年,曝光很多乐队成员年轻时和私下的珍贵画面。题目“A Head Full of Dreams”取自酷玩乐队的同名歌曲。
  1. Video
  2. ID                                       : 1
  3. Format                                   : AVC
  4. Format/Info                              : Advanced Video Codec
  5. Format profile                           : High@L4
  6. Format settings                          : CABAC / 4 Ref Frames
  7. Format settings, CABAC                   : Yes
  8. Format settings, Reference frames        : 4 frames
  9. Codec ID                                 : avc1
  10. Codec ID/Info                            : Advanced Video Coding
  11. Duration                                 : 1 h 44 min
  12. Bit rate                                 : 2 500 kb/s
  13. Width                                    : 1 920 pixels
  14. Height                                   : 1 080 pixels
  15. Display aspect ratio                     : 16:9
  16. Frame rate mode                          : Constant
  17. Frame rate                               : 23.976 (23976/1000) FPS
  18. Color space                              : YUV
  19. Chroma subsampling                       : 4:2:0
  20. Bit depth                                : 8 bits
  21. Scan type                                : Progressive
  22. Bits/(Pixel*Frame)                       : 0.050
  23. Stream size                              : 1.82 GiB (92%)
  24. Writing library                          : x264 core 152 r2851M ba24899
  25. Encoding settings                        : cabac=1 / ref=4 / deblock=1:-1:-1 / analyse=0x3:0x113 / me=umh / subme=9 / psy=1 / psy_rd=1.00:0.15 / mixed_ref=1 / me_range=24 / chroma_me=1 / trellis=2 / 8x8dct=1 / cqm=0 / deadzone=21,11 / fast_pskip=1 / chroma_qp_offset=-3 / threads=16 / lookahead_threads=4 / sliced_threads=0 / nr=0 / decimate=1 / interlaced=0 / bluray_compat=0 / constrained_intra=0 / bframes=3 / b_pyramid=2 / b_adapt=2 / b_bias=0 / direct=3 / weightb=1 / open_gop=0 / weightp=2 / keyint=250 / keyint_min=25 / scenecut=40 / intra_refresh=0 / rc_lookahead=50 / rc=2pass / mbtree=1 / bitrate=2500 / ratetol=1.0 / qcomp=0.60 / qpmin=0 / qpmax=69 / qpstep=4 / cplxblur=20.0 / qblur=0.5 / vbv_maxrate=31250 / vbv_bufsize=31250 / nal_hrd=none / filler=0 / ip_ratio=1.40 / aq=3:1.00
  26. Encoded date                             : UTC 2020-02-14 22:32:35
  27. Tagged date                              : UTC 2020-02-14 22:32:35
  28. Codec configuration box                  : avcC

  29. Audio
  30. ID                                       : 2
  31. Format                                   : AAC LC
  32. Format/Info                              : Advanced Audio Codec Low Complexity
  33. Codec ID                                 : mp4a-40-2
  34. Duration                                 : 1 h 44 min
  35. Bit rate mode                            : Constant
  36. Bit rate                                 : 224 kb/s
  37. Channel(s)                               : 6 channels
  38. Channel layout                           : C L R Ls Rs LFE
  39. Sampling rate                            : 48.0 kHz
  40. Frame rate                               : 46.875 FPS (1024 SPF)
  41. Compression mode                         : Lossy
  42. Stream size                              : 168 MiB (8%)
  43. Default                                  : Yes
  44. Alternate group                          : 1
  45. Encoded date                             : UTC 2020-02-14 22:32:35
  46. Tagged date                              : UTC 2020-02-14 22:32:35
复制代码

酷玩乐队:满脑子的胡想 Coldplay.A.Head.Full.of.Dreams.2018.1080p.WEBRip.x264-RARBG 1.99GB-2.png 酷玩乐队:满脑子的胡想 Coldplay.A.Head.Full.of.Dreams.2018.1080p.WEBRip.x264-RARBG 1.99GB-3.png 酷玩乐队:满脑子的胡想 Coldplay.A.Head.Full.of.Dreams.2018.1080p.WEBRip.x264-RARBG 1.99GB-4.png






回复

使用道具 举报

懒得打字嘛,点击右侧快捷回复 【右侧内容,后台自定义】
您需要登录后才可以回帖 登录 | 立即注册

本版积分规则

Archiver|手机版|小黑屋| 中国高清网 |网站地图

GMT+8, 2020-2-27 13:19 , Processed in 0.138690 second(s), 37 queries .

Powered by HDchina X3.4

Copyright 2017-2019©HDchina.All right reserved

返回顶部 联系我们