查看: 23|回复: 0

[喜剧片] 亚当的肋骨/金屋藏娇 Adams.Rib.1949.1080p.AMZN.WEBRip.DDP2.0.x264-SbR 7.07GB

[复制链接]

 成长值: 4200

级别:资源管理组

注册时间
2017-10-20
最后登录
2020-2-27
听众
1
收听
0
主题
92868
蓝光币
105006 枚
贡献
17230 点
发表于 2020-2-15 15:08:47 | 显示全部楼层 |阅读模式
亚当的肋骨/金屋藏娇 Adams.Rib.1949.1080p.AMZN.WEBRip.DDP2.0.x264-SbR 7.07GB-1.png

译  名 亚当的肋骨 / 金屋藏娇
片  名 Adam's Rib
年  代 1949
产  地 美国
类  别 笑剧 / 恋爱
语  言 英语
上映日期 1949-11-18
IMDb评分  7.5/10 from 18421 users
IMDb链接  https://www.imdb.com/title/tt0041090
豆瓣评分 7.4/10 from 295 users
豆瓣链接 https://movie.douban.com/subject/1298430/
片  长 101 分钟
导  演 George Cukor
编  剧 Ruth Gordon / Garson Kanin
主  演 Spencer Tracy
       Katharine Hepburn
       Judy Holliday
       Tom Ewell
       David Wayne


标  签 美国 | 笑剧 | 凯瑟琳·赫本 | 恋爱 | 1940s | KatharineHepburn | 1949 | 美国电影

简  介  

  斯宾塞.屈塞与凯瑟琳.赫本同伴的笑剧,可以说是永久长青的。在本片中两人是一对夫妻,一个是检控官,一个是辩解律师,两人在法庭上永久各不相让,甚至是以影响了他们法庭下的平常生活。 在处置一路妻子想要枪杀不忠丈夫的案件中,两人再次针锋相对。但这一次,随着案件的停顿,他们也是以再一次重温婚姻和恋爱的寄义。

获奖情况  

  第23届奥斯卡金像奖(1951)
  最好故事/编剧(提名) 加森·卡宁 / 鲁思·戈登

  第8届金球奖(1951)
  电影类 最好女配角(提名) 朱迪·霍利德
  1. Video
  2. ID                                       : 1
  3. Format                                   : AVC
  4. Format/Info                              : Advanced Video Codec
  5. Format profile                           : High@L4
  6. Format settings                          : CABAC / 4 Ref Frames
  7. Format settings, CABAC                   : Yes
  8. Format settings, Reference frames        : 4 frames
  9. Codec ID                                 : V_MPEG4/ISO/AVC
  10. Duration                                 : 1 h 40 min
  11. Bit rate mode                            : Constant
  12. Bit rate                                 : 10 000 kb/s
  13. Width                                    : 1 440 pixels
  14. Height                                   : 1 080 pixels
  15. Display aspect ratio                     : 4:3
  16. Frame rate mode                          : Constant
  17. Frame rate                               : 23.976 (24000/1001) FPS
  18. Color space                              : YUV
  19. Chroma subsampling                       : 4:2:0
  20. Bit depth                                : 8 bits
  21. Scan type                                : Progressive
  22. Bits/(Pixel*Frame)                       : 0.268
  23. Stream size                              : 6.91 GiB (98%)
  24. Language                                 : English
  25. Default                                  : Yes
  26. Forced                                   : No
  27. Color range                              : Limited
  28. Color primaries                          : BT.709
  29. Transfer characteristics                 : BT.709
  30. Matrix coefficients                      : BT.709

  31. Audio
  32. ID                                       : 2
  33. Format                                   : E-AC-3
  34. Format/Info                              : Enhanced AC-3
  35. Commercial name                          : Dolby Digital Plus
  36. Codec ID                                 : A_EAC3
  37. Duration                                 : 1 h 40 min
  38. Bit rate mode                            : Constant
  39. Bit rate                                 : 224 kb/s
  40. Channel(s)                               : 2 channels
  41. Channel layout                           : L R
  42. Sampling rate                            : 48.0 kHz
  43. Frame rate                               : 31.250 FPS (1536 SPF)
  44. Compression mode                         : Lossy
  45. Stream size                              : 162 MiB (2%)
  46. Language                                 : English
  47. Service kind                             : Complete Main
  48. Default                                  : Yes
  49. Forced                                   : No

  50. Text #1
  51. ID                                       : 3
  52. Format                                   : UTF-8
  53. Codec ID                                 : S_TEXT/UTF8
  54. Codec ID/Info                            : UTF-8 Plain Text
  55. Duration                                 : 1 h 37 min
  56. Bit rate                                 : 88 b/s
  57. Count of elements                        : 1931
  58. Stream size                              : 63.3 KiB (0%)
  59. Language                                 : English
  60. Default                                  : No
  61. Forced                                   : No

  62. Text #2
  63. ID                                       : 4
  64. Format                                   : UTF-8
  65. Codec ID                                 : S_TEXT/UTF8
  66. Codec ID/Info                            : UTF-8 Plain Text
  67. Duration                                 : 1 h 40 min
  68. Bit rate                                 : 89 b/s
  69. Count of elements                        : 2049
  70. Stream size                              : 66.0 KiB (0%)
  71. Title                                    : SDH
  72. Language                                 : English
  73. Default                                  : No
  74. Forced                                   : No

  75. Menu
  76. 00:00:00.000                             : en:01. Opening Logos
  77. 00:00:10.219                             : en:02. Main Title
  78. 00:01:15.075                             : en:03. Doris in Pursuit
  79. 00:03:45.475                             : en:04. Doris Uses the Gun
  80. 00:05:44.177                             : en:05. The Bonners Arise
  81. 00:09:11.834                             : en:06. The Drive to Work
  82. 00:10:29.379                             : en:07. A Case of the Attingers
  83. 00:14:55.770                             : en:08. Doris Recounts the Crime
  84. 00:21:38.839                             : en:09. The Dinner Party
  85. 00:27:22.766                             : en:10. Bonner Home Movies
  86. 00:31:19.461                             : en:11. A Bonner Spat
  87. 00:32:35.579                             : en:12. The Jury Selection
  88. 00:37:15.108                             : en:13. "Pinky Cranky?"
  89. 00:42:33.885                             : en:14. Farewell Amanda
  90. 00:46:39.922                             : en:15. Beryl Caighn Testifies
  91. 00:50:30.903                             : en:16. Warren Attinger on the Stand
  92. 00:53:28.997                             : en:17. Doris Attinger on the Stand
  93. 00:57:52.094                             : en:18. The Massage
  94. 00:58:55.782                             : en:19. The Slap
  95. 01:01:58.715                             : en:20. Battle of the Sexes
  96. 01:07:28.419                             : en:21. "The Law Is ihe Law!"
  97. 01:11:37.793                             : en:22. "I Like Two Sexes!"
  98. 01:12:54.787                             : en:23. The Sex Change Summation
  99. 01:16:35.090                             : en:24. Adam\'s Closing Argument
  100. 01:20:19.565                             : en:25. The Verdict
  101. 01:24:40.867                             : en:26. Kip And Amanda on Marriage
  102. 01:28:23.507                             : en:27. Adam Points the Gun
  103. 01:32:53.401                             : en:28. The Accountant\'s Office
  104. 01:36:44.424                             : en:29. "Vive La Difference!"
  105. 01:40:25.519                             : en:30. End Credits
复制代码

亚当的肋骨/金屋藏娇 Adams.Rib.1949.1080p.AMZN.WEBRip.DDP2.0.x264-SbR 7.07GB-1.png 亚当的肋骨/金屋藏娇 Adams.Rib.1949.1080p.AMZN.WEBRip.DDP2.0.x264-SbR 7.07GB-2.png 亚当的肋骨/金屋藏娇 Adams.Rib.1949.1080p.AMZN.WEBRip.DDP2.0.x264-SbR 7.07GB-4.png






回复

使用道具 举报

懒得打字嘛,点击右侧快捷回复 【右侧内容,后台自定义】
您需要登录后才可以回帖 登录 | 立即注册

本版积分规则

Archiver|手机版|小黑屋| 中国高清网 |网站地图

GMT+8, 2020-2-27 12:58 , Processed in 0.145439 second(s), 37 queries .

Powered by HDchina X3.4

Copyright 2017-2019©HDchina.All right reserved

返回顶部 联系我们