查看: 18|回复: 0

[剧情片] 春满乾坤福满门 Come.Next.Spring.1956.1080p.AMZN.WEBRip.DDP2.0.x264-SbR 6.48GB

[复制链接]

 成长值: 4200

级别:资源管理组

注册时间
2017-10-20
最后登录
2020-2-27
听众
1
收听
0
主题
92868
蓝光币
105004 枚
贡献
17230 点
发表于 2020-2-15 15:07:29 | 显示全部楼层 |阅读模式
春满乾坤福满门 Come.Next.Spring.1956.1080p.AMZN.WEBRip.DDP2.0.x264-SbR 6.48GB-1.png

译  名 春满乾坤福满门
片  名 Come Next Spring
年  代 1956
产  地 美国
类  别 剧情
语  言 英语
上映日期 1956-03-09
IMDb评分  7.0/10 from 301 users
IMDb链接  https://www.imdb.com/title/tt0049088
豆瓣评分 0/10 from 0 users
豆瓣链接 https://movie.douban.com/subject/1299896/
片  长 92 分钟
导  演 R. G. 史宾司汀 (R.G. Springsteen)
编  剧 Montgomery Pittman
主  演 安·谢里登 Ann Sheridan
       史蒂夫·柯臣 Steve Cochran
       沃尔特·布伦南 Walter Brennan
       Sherry Jackson
       理查德·艾尔 Richard Eyer


标  签 无资本

简  介  

  Matt Ballot has returned home after 12 years of hard drinking in all 48 states. His wife managed to raise their 14-year-old daughter and 12-year-old son nicely without his help. Matt is considered a disgrace to the town he came from, and now he finds himself trying to win the love of his children, his wife and the respect of the towns people. Set in Arkansas in the 1920s.
  1. Video
  2. ID                                       : 1
  3. Format                                   : AVC
  4. Format/Info                              : Advanced Video Codec
  5. Format profile                           : High@L4
  6. Format settings                          : CABAC / 4 Ref Frames
  7. Format settings, CABAC                   : Yes
  8. Format settings, Reference frames        : 4 frames
  9. Codec ID                                 : V_MPEG4/ISO/AVC
  10. Duration                                 : 1 h 31 min
  11. Bit rate mode                            : Constant
  12. Bit rate                                 : 10 000 kb/s
  13. Width                                    : 1 792 pixels
  14. Height                                   : 1 080 pixels
  15. Display aspect ratio                     : 5:3
  16. Frame rate mode                          : Constant
  17. Frame rate                               : 23.976 (24000/1001) FPS
  18. Color space                              : YUV
  19. Chroma subsampling                       : 4:2:0
  20. Bit depth                                : 8 bits
  21. Scan type                                : Progressive
  22. Bits/(Pixel*Frame)                       : 0.216
  23. Stream size                              : 6.34 GiB (98%)
  24. Language                                 : English
  25. Default                                  : Yes
  26. Forced                                   : No
  27. Color range                              : Limited
  28. Color primaries                          : BT.709
  29. Transfer characteristics                 : BT.709
  30. Matrix coefficients                      : BT.709

  31. Audio
  32. ID                                       : 2
  33. Format                                   : E-AC-3
  34. Format/Info                              : Enhanced AC-3
  35. Commercial name                          : Dolby Digital Plus
  36. Codec ID                                 : A_EAC3
  37. Duration                                 : 1 h 31 min
  38. Bit rate mode                            : Constant
  39. Bit rate                                 : 224 kb/s
  40. Channel(s)                               : 2 channels
  41. Channel layout                           : L R
  42. Sampling rate                            : 48.0 kHz
  43. Frame rate                               : 31.250 FPS (1536 SPF)
  44. Compression mode                         : Lossy
  45. Stream size                              : 147 MiB (2%)
  46. Language                                 : English
  47. Service kind                             : Complete Main
  48. Default                                  : Yes
  49. Forced                                   : No

  50. Text #1
  51. ID                                       : 3
  52. Format                                   : UTF-8
  53. Codec ID                                 : S_TEXT/UTF8
  54. Codec ID/Info                            : UTF-8 Plain Text
  55. Duration                                 : 1 h 31 min
  56. Bit rate                                 : 64 b/s
  57. Count of elements                        : 1288
  58. Stream size                              : 43.0 KiB (0%)
  59. Language                                 : English
  60. Default                                  : No
  61. Forced                                   : No

  62. Text #2
  63. ID                                       : 4
  64. Format                                   : UTF-8
  65. Codec ID                                 : S_TEXT/UTF8
  66. Codec ID/Info                            : UTF-8 Plain Text
  67. Duration                                 : 1 h 31 min
  68. Bit rate                                 : 66 b/s
  69. Count of elements                        : 1363
  70. Stream size                              : 44.5 KiB (0%)
  71. Title                                    : SDH
  72. Language                                 : English
  73. Default                                  : No
  74. Forced                                   : No
复制代码

春满乾坤福满门 Come.Next.Spring.1956.1080p.AMZN.WEBRip.DDP2.0.x264-SbR 6.48GB-2.png 春满乾坤福满门 Come.Next.Spring.1956.1080p.AMZN.WEBRip.DDP2.0.x264-SbR 6.48GB-3.png 春满乾坤福满门 Come.Next.Spring.1956.1080p.AMZN.WEBRip.DDP2.0.x264-SbR 6.48GB-4.png






回复

使用道具 举报

懒得打字嘛,点击右侧快捷回复 【右侧内容,后台自定义】
您需要登录后才可以回帖 登录 | 立即注册

本版积分规则

Archiver|手机版|小黑屋| 中国高清网 |网站地图

GMT+8, 2020-2-27 12:48 , Processed in 0.136106 second(s), 37 queries .

Powered by HDchina X3.4

Copyright 2017-2019©HDchina.All right reserved

返回顶部 联系我们