查看: 18|回复: 0

[剧情片] 银河彩凤 Wings.Of.The.Morning.1937.1080p.AMZN.WEBRip.DDP2.0.x264-SbR 5.08GB

[复制链接]

 成长值: 4200

级别:资源管理组

注册时间
2017-10-20
最后登录
2020-2-27
听众
1
收听
0
主题
92868
蓝光币
105004 枚
贡献
17230 点
发表于 2020-2-15 15:05:18 | 显示全部楼层 |阅读模式
银河彩凤 Wings.Of.The.Morning.1937.1080p.AMZN.WEBRip.DDP2.0.x264-SbR 5.08GB-1.png

译  名 银河彩凤
片  名 Wings of the Morning
年  代 1937
产  地 英国
类  别 剧情 / 恋爱
语  言 英语
上映日期 1937-03-11
IMDb评分  5.9/10 from 216 users
IMDb链接  https://www.imdb.com/title/tt0029785
豆瓣评分 0/10 from 0 users
豆瓣链接 https://movie.douban.com/subject/1297439/
片  长 89分钟
导  演 Harold D. Schuster
编  剧 Brian Oswald Donn-Byrne / Thomas J. Geraghty
主  演 安娜贝拉 Annabella
       亨利·方达 Henry Fonda
       莱斯利·班克斯 Leslie Banks


标  签 英國 | 30 | 英国电影 | 的 | 无资本

简  介  

  暂无相关剧情先容

获奖情况  

  第5届威尼斯电影节(1937)
  墨索里尼杯 最好国际电影(提名) 哈罗德·舒斯特
  1. Video
  2. ID                                       : 1
  3. Format                                   : AVC
  4. Format/Info                              : Advanced Video Codec
  5. Format profile                           : High@L4
  6. Format settings                          : CABAC / 4 Ref Frames
  7. Format settings, CABAC                   : Yes
  8. Format settings, Reference frames        : 4 frames
  9. Codec ID                                 : V_MPEG4/ISO/AVC
  10. Duration                                 : 1 h 27 min
  11. Bit rate mode                            : Variable
  12. Bit rate                                 : 8 096 kb/s
  13. Maximum bit rate                         : 15.0 Mb/s
  14. Width                                    : 1 440 pixels
  15. Height                                   : 1 080 pixels
  16. Display aspect ratio                     : 4:3
  17. Frame rate mode                          : Constant
  18. Frame rate                               : 24.000 FPS
  19. Color space                              : YUV
  20. Chroma subsampling                       : 4:2:0
  21. Bit depth                                : 8 bits
  22. Scan type                                : Progressive
  23. Bits/(Pixel*Frame)                       : 0.217
  24. Stream size                              : 4.94 GiB (97%)
  25. Language                                 : English
  26. Default                                  : Yes
  27. Forced                                   : No
  28. Color range                              : Limited
  29. Color primaries                          : BT.709
  30. Transfer characteristics                 : BT.709
  31. Matrix coefficients                      : BT.709

  32. Audio
  33. ID                                       : 2
  34. Format                                   : E-AC-3
  35. Format/Info                              : Enhanced AC-3
  36. Commercial name                          : Dolby Digital Plus
  37. Codec ID                                 : A_EAC3
  38. Duration                                 : 1 h 27 min
  39. Bit rate mode                            : Constant
  40. Bit rate                                 : 224 kb/s
  41. Channel(s)                               : 2 channels
  42. Channel layout                           : L R
  43. Sampling rate                            : 48.0 kHz
  44. Frame rate                               : 31.250 FPS (1536 SPF)
  45. Compression mode                         : Lossy
  46. Stream size                              : 140 MiB (3%)
  47. Language                                 : English
  48. Service kind                             : Complete Main
  49. Default                                  : Yes
  50. Forced                                   : No

  51. Text
  52. ID                                       : 3
  53. Format                                   : UTF-8
  54. Codec ID                                 : S_TEXT/UTF8
  55. Codec ID/Info                            : UTF-8 Plain Text
  56. Duration                                 : 1 h 25 min
  57. Bit rate                                 : 63 b/s
  58. Count of elements                        : 1215
  59. Stream size                              : 39.8 KiB (0%)
  60. Language                                 : English
  61. Default                                  : No
  62. Forced                                   : No
复制代码

银河彩凤 Wings.Of.The.Morning.1937.1080p.AMZN.WEBRip.DDP2.0.x264-SbR 5.08GB-2.png 银河彩凤 Wings.Of.The.Morning.1937.1080p.AMZN.WEBRip.DDP2.0.x264-SbR 5.08GB-3.png 银河彩凤 Wings.Of.The.Morning.1937.1080p.AMZN.WEBRip.DDP2.0.x264-SbR 5.08GB-4.png






回复

使用道具 举报

懒得打字嘛,点击右侧快捷回复 【右侧内容,后台自定义】
您需要登录后才可以回帖 登录 | 立即注册

本版积分规则

Archiver|手机版|小黑屋| 中国高清网 |网站地图

GMT+8, 2020-2-27 12:27 , Processed in 0.130071 second(s), 37 queries .

Powered by HDchina X3.4

Copyright 2017-2019©HDchina.All right reserved

返回顶部 联系我们