查看: 347|回复: 2

[2160p-WEB] 怪兽电力公司/怪兽公司 Monsters.Inc.2001.HDR.2160p.WEB.H265-PETRiFiED 10.94GB

[复制链接]

 成长值: 4210

级别:资源管理组

注册时间
2017-10-20
最后登录
2020-2-28
听众
1
收听
0
主题
92951
蓝光币
105915 枚
贡献
17313 点
发表于 2020-2-13 23:41:29 | 显示全部楼层 |阅读模式
怪兽电力公司/怪兽公司 Monsters.Inc.2001.HDR.2160p.WEB.H265-PETRiFiED 10.94GB-1.png

译  名 怪兽电力公司 / 怪兽公司(港) / 怪物公司
片  名 Monsters, Inc.
年  代 2001
产  地 美国
类  别 笑剧 / 动画 / 儿童 / 奇异 / 冒险
语  言 英语
上映日期 2001-11-02(美国) / 2012-12-19(美国)
IMDb评分  8.0/10 from 770644 users
IMDb链接  https://www.imdb.com/title/tt0198781
豆瓣评分 8.7/10 from 416341 users
豆瓣链接 https://movie.douban.com/subject/1291579/
片  长 92 分钟
导  演 彼特·道格特 Pete Docter / 大卫·斯沃曼 David Silverman / 李·昂克里奇 Lee Unkrich
编  剧 安德鲁·斯坦顿 Andrew Stanton / Daniel Gerson / Robert L. Baird / 略特·里斯 Rhett Reese / Jonathan Roberts / 彼特·道格特 Pete Docter / 杰夫·皮金  Jeff Pidgeon / 吉尔·卡尔顿 Jill Culton / 拉夫·埃格尔斯顿 Ralph Eggleston
主  演 约翰·古德曼 John Goodman
       比利·克里斯托 Billy Crystal
       玛丽·吉布斯 Mary Gibbs
       史蒂夫·布西密 Steve Buscemi
       詹姆斯·柯本 James Coburn
       詹妮弗·提莉 Jennifer Tilly
       鲍勃·彼德森 Bob Peterson
       约翰·拉岑贝格 John Ratzenberger
       弗兰克·奥兹 Frank Oz
       丹尼尔·吉尔森 Daniel Gerson
       邦尼·亨特 Bonnie Hunt
       杰克·安琪 Jack Angel
       Samuel Lord Black
       Steve Susskind


标  签 动画 | 迪斯尼 | 美国 | 笑剧 | pixar | 动画片 | 温情 | 美国电影

简  介  

  我们不晓得,在那样的天下里住着那样一群怪物。他们长相滑稽,却必须假装狰狞。由于,在夜深的时辰,他们要静静的出现在孩子的衣橱里,恐吓刚刚甜蜜睡去的宝宝。一切,只由于他们是怪物电力公司的员工,而孩子的尖叫,则是怪物王国发电的全数能量。怪物们惧怕孩子,却又必须让孩子尖叫。在怪物的国家里,他们都是为全民造福的豪杰。
  毛怪苏利文(约翰?古德曼)是怪物公司最出色的员工,业绩总是摇摇领先,他吓哭的小孩儿不成胜数。他与同伴大眼怪麦克(比利?克里斯托)很受大师的爱戴。一次偶然,毛怪不谨慎把一个两岁的小女孩阿布(玛丽?吉布斯)带回了怪物天下,引发了极大的发急,调皮心爱的阿布把这些可怕的怪物吓的人仰马翻。警方在追捕阿布,而好人亨利(詹姆斯?柯博)也计划操纵阿布停止他鼎新工场的邪恶计划。
  另一方面,在与阿布相处的进程中,毛怪渐渐对她发生莫名的情愫,甚至是以被放逐田野。可是一切都不能抵抗毛怪拯救女孩的信心,为了阿布,毛怪踏上了艰险的旅程……

获奖情况  

  第74届奥斯卡金像奖(2002)
  最好动画长片(提名) 约翰·拉塞特 / 彼特·道格特
  最好音效剪辑 嘉里·瑞德斯托姆 / 迈克尔·席维斯
  最好原创配乐(提名) 兰迪·纽曼
  最好原创歌曲 兰迪·纽曼

  第30届动画安妮奖(2003)
  最好动画长片(提名)
  最好导演(提名) 彼特·道格特 / 大卫·斯沃曼 / 李·昂克里奇
  最好编剧(提名) 丹尼尔·吉尔森 / 安德鲁·斯坦顿
  最好配乐(提名) 兰迪·纽曼
  最好艺术指导(提名) 哈雷·杰斯普
  最好动画脚色(提名) Ricky Nierva
  最好脚色设想(提名) Ricky Nierva

  第27届报知映画赏(2002)
  外洋作品奖 彼特·道格特
  1. Video
  2. ID                                       : 1
  3. Format                                   : HEVC
  4. Format/Info                              : High Efficiency Video Coding
  5. Format profile                           : Main High@L4@High
  6. Codec ID                                 : V_MPEGH/ISO/HEVC
  7. Duration                                 : 1 h 32 min
  8. Bit rate                                 : 16.2 Mb/s
  9. Width                                    : 3 840 pixels
  10. Height                                   : 2 160 pixels
  11. Display aspect ratio                     : 16:9
  12. Frame rate mode                          : Constant
  13. Frame rate                               : 23.976 (24000/1001) FPS
  14. Color space                              : YUV
  15. Chroma subsampling                       : 4:2:0
  16. Bit depth                                : 10 bits
  17. Bits/(Pixel*Frame)                       : 0.081
  18. Stream size                              : 10.5 GiB (96%)
  19. Language                                 : English
  20. Default                                  : Yes
  21. Forced                                   : No
  22. Color range                              : Limited
  23. Color primaries                          : BT.2020
  24. Transfer characteristics                 : PQ
  25. Matrix coefficients                      : BT.2020 non-constant
  26. Statistics Tags Issue                    : no_variable_data 1970-01-01 00:00:00 / no_variable_data 2010-02-22 21:41:29
  27. FromStats_BitRate                        : 16526760
  28. FromStats_Duration                       : 01:32:34.925000000
  29. FromStats_FrameCount                     : 133185
  30. FromStats_StreamSize                     : 11475614689

  31. Audio
  32. ID                                       : 2
  33. Format                                   : E-AC-3
  34. Format/Info                              : Enhanced AC-3
  35. Commercial name                          : Dolby Digital Plus
  36. Codec ID                                 : A_EAC3
  37. Duration                                 : 1 h 32 min
  38. Bit rate mode                            : Constant
  39. Bit rate                                 : 256 kb/s
  40. Channel(s)                               : 6 channels
  41. Channel layout                           : L R C LFE Ls Rs
  42. Sampling rate                            : 48.0 kHz
  43. Frame rate                               : 31.250 FPS (1536 SPF)
  44. Compression mode                         : Lossy
  45. Stream size                              : 170 MiB (2%)
  46. Language                                 : English
  47. Service kind                             : Complete Main
  48. Default                                  : Yes
  49. Forced                                   : No
  50. Statistics Tags Issue                    : no_variable_data 1970-01-01 00:00:00 / no_variable_data 2010-02-22 21:41:29
  51. FromStats_BitRate                        : 256000
  52. FromStats_Duration                       : 01:32:34.976000000
  53. FromStats_FrameCount                     : 173593
  54. FromStats_StreamSize                     : 177759232

  55. Text #1
  56. ID                                       : 3
  57. Format                                   : UTF-8
  58. Codec ID                                 : S_TEXT/UTF8
  59. Codec ID/Info                            : UTF-8 Plain Text
  60. Title                                    : English (SDH)
  61. Language                                 : English
  62. Default                                  : No
  63. Forced                                   : No
  64. Statistics Tags Issue                    : no_variable_data 1970-01-01 00:00:00 / no_variable_data 2010-02-22 21:41:29
  65. FromStats_BitRate                        : 67
  66. FromStats_Duration                       : 01:24:50.299000000
  67. FromStats_FrameCount                     : 1315
  68. FromStats_StreamSize                     : 42896

  69. Text #2
  70. ID                                       : 4
  71. Format                                   : UTF-8
  72. Codec ID                                 : S_TEXT/UTF8
  73. Codec ID/Info                            : UTF-8 Plain Text
  74. Title                                    : Spanish (Latin American)
  75. Language                                 : Spanish
  76. Default                                  : No
  77. Forced                                   : No
  78. Statistics Tags Issue                    : no_variable_data 1970-01-01 00:00:00 / no_variable_data 2010-02-22 21:41:29
  79. FromStats_BitRate                        : 60
  80. FromStats_Duration                       : 01:23:26.520000000
  81. FromStats_FrameCount                     : 1088
  82. FromStats_StreamSize                     : 37707
复制代码

怪兽电力公司/怪兽公司 Monsters.Inc.2001.HDR.2160p.WEB.H265-PETRiFiED 10.94GB-2.png 怪兽电力公司/怪兽公司 Monsters.Inc.2001.HDR.2160p.WEB.H265-PETRiFiED 10.94GB-3.png 怪兽电力公司/怪兽公司 Monsters.Inc.2001.HDR.2160p.WEB.H265-PETRiFiED 10.94GB-4.png






本帖隐藏的下载地址需要VIP会员才可阅读,您需要升级才可阅读,点击这里升级VIP
回复

使用道具 举报

级别:初级观众 Lv.1

注册时间
2019-11-24
最后登录
2020-2-14
听众
1
收听
0
主题
0
蓝光币
6 枚
贡献
0 点
发表于 2020-2-14 15:15:34 | 显示全部楼层
提示: 该帖被管理员或版主屏蔽
回复

使用道具 举报

级别:专业龙套 Lv.4

注册时间
2018-10-24
最后登录
2020-2-28
听众
15
收听
0
主题
0
蓝光币
115 枚
贡献
0 点
发表于 2020-2-15 13:36:35 | 显示全部楼层
楼主发贴辛苦了,谢谢楼主分享!我觉得中国高清电影网是注册对了!
回复

使用道具 举报

懒得打字嘛,点击右侧快捷回复 【右侧内容,后台自定义】
您需要登录后才可以回帖 登录 | 立即注册

本版积分规则

Archiver|手机版|小黑屋| 中国高清网 |网站地图

GMT+8, 2020-2-28 21:58 , Processed in 0.179508 second(s), 38 queries .

Powered by HDchina X3.4

Copyright 2017-2019©HDchina.All right reserved

返回顶部 联系我们