查看: 271|回复: 0

[2160p-WEB] 怪兽大学 Monsters.University.2013.HDR.2160p.WEB.H265-PETRiFiED 12.63GB

[复制链接]

 成长值: 4210

级别:资源管理组

注册时间
2017-10-20
最后登录
2020-2-28
听众
1
收听
0
主题
92972
蓝光币
106013 枚
贡献
17334 点
发表于 2020-2-13 23:40:21 | 显示全部楼层 |阅读模式
怪兽大学 Monsters.University.2013.HDR.2160p.WEB.H265-PETRiFiED 12.63GB-1.png

译  名 怪兽大学 / Monsters Inc. 2 / 怪兽公司2 / 怪兽电力公司2:怪兽大学 / 怪物公司2 / 怪物公司2:怪物大学
片  名 Monsters University
年  代 2013
产  地 美国
类  别 笑剧 / 动画 / 冒险
语  言 英语
上映日期 2013-06-21(美国) / 2013-08-23(中国大陆)
IMDb评分  7.3/10 from 304061 users
IMDb链接  https://www.imdb.com/title/tt1453405
豆瓣评分 8.1/10 from 265315 users
豆瓣链接 https://movie.douban.com/subject/3789848/
片  长 104分钟
导  演 丹·斯坎伦 Dan Scanlon
编  剧 罗伯特·L·贝尔德 Robert L. Baird / 丹尼尔·吉尔森 Daniel Gerson / 丹·斯坎伦 Dan Scanlon
主  演 比利·克里斯托 Billy Crystal
       约翰·古德曼 John Goodman
       史蒂夫·布西密 Steve Buscemi
       海伦·米伦 Helen Mirren
       彼得·索恩 Peter Sohn
       乔尔·默里 Joel Murray
       西恩·海耶斯 Sean Hayes
       大卫·弗利 Dave Foley
       查理·戴 Charlie Day
       阿尔弗雷德·莫里纳 Alfred Molina
       泰勒·莱伯恩 Tyler Labine
       内森·菲利安 Nathan Fillion
       奥布瑞·普拉扎 Aubrey Plaza
       贝丝·比厄 Beth Behrs
       鲍比·莫伊尼汉 Bobby Moynihan
       朱丽亚·斯维尼 Julia Sweeney


标  签 动画 | 美国 | 皮克斯 | 笑剧 | 搞笑 | 2013 | 励志 | 温情

简  介  

  自幼向往惊吓专员职业的大眼仔麦克·华斯基(比利·克里斯托 Billy Crystal 配音),终究如愿考入曾走出过无数传奇人物的怪兽大学惊吓学院。对于这个边幅讨喜、丝毫没有任何可骇气场的小怪物来说,死啃书籍似乎是实现胡想的唯一路子。与之相对,系出惊吓名门的同学毛怪詹姆士·苏利文(约翰·古德曼 John Goodman 配音)天生是四周同学关注的焦点,完全一副什么都无所谓的游荡令郎哥做派。倒霉的是这两个脾性完全分歧的家伙惹到了极为严酷的院长迪安·哈德斯克莱博(海伦·米伦 Helen Mirren 配音),成果在期中考试时被三振出局,驱逐出惊吓学院。不甘失利的大眼仔捉住一线机遇,集结团队报名加入兄弟会举行的惊吓游戏,只要得胜的话便有机遇重返惊吓学院。而在高手云集的赛场上,大眼仔与毛怪行将驱逐史无前例的应战……
  本片为皮克斯动画片《怪兽电力公司》的前传。

获奖情况  

  第41届动画安妮奖(2014)
  最好动画长片(提名)
  最好编剧(提名) 丹尼尔·吉尔森 / 丹·斯坎隆 / 罗伯特·L·贝尔德
  最好配音(提名) 比利·克里斯托
  最好配乐(提名) 兰迪·纽曼
  最好剪辑
  最好分镜
  最好艺术指导(提名)
  最好动画脚色(提名)
  最好脚色设想(提名)
  最好动画结果(提名)

  第25届美国制片野生会奖(2014)
  最好动画片制片人奖(提名) Kori Rae

  第64届美国剪辑工会奖(2014)
  动画片最好剪辑(提名) 格雷戈·斯奈德

  第61届美国音效剪辑协会奖(2014)
  金卷轴奖 最好动画片音效剪辑(提名) Pascal Garneau / Teresa Eckton / 迈克尔·席维斯 / Luke Dunn Gielmuda / Brian Chumney / Dustin Cawood / Bruno Coon / Tom Myers / Dennie Thorpe / Jana Vance

  第12届美国视觉结果协会奖(2014)
  最好动画电影视觉结果(提名) Kori Rae / Jon Reisch
  最好动画电影CG布景(提名)

  第50届美国声音结果协会奖(2014)
  动画电影最好音效(提名) Doc Kane / 加里·萨默斯 / 迈克尔·斯曼外科

  第19届美国批评家挑选电影奖(2014)
  最好动画片(提名)

  第18届金卫星奖(2014)
  电影部分 最好动画片(提名)

  第17届好莱坞电影奖(2013)
  年度电影(提名) 丹·斯坎隆
  年度动画 Kori Rae / 丹·斯坎隆

  第12届华盛顿影评人协会奖(2013)
  最好动画片(提名)

  第13届凤凰城影评人协会奖(2013)
  最好动画片(提名)

  第17届美国在线影评人协会奖(2013)
  最好动画片(提名)

  第15届美国青少年挑选奖(2013)
  最好暑期笑剧片(提名)

  第4届豆瓣电影鑫像奖(2014)
  鑫豆单元 最好动画长片(提名)
  1. Video
  2. ID                                       : 1
  3. Format                                   : HEVC
  4. Format/Info                              : High Efficiency Video Coding
  5. Format profile                           : Main High@L4@High
  6. Codec ID                                 : V_MPEGH/ISO/HEVC
  7. Duration                                 : 1 h 43 min
  8. Bit rate                                 : 16.2 Mb/s
  9. Width                                    : 3 840 pixels
  10. Height                                   : 2 160 pixels
  11. Display aspect ratio                     : 16:9
  12. Frame rate mode                          : Constant
  13. Frame rate                               : 23.976 (24000/1001) FPS
  14. Color space                              : YUV
  15. Chroma subsampling                       : 4:2:0
  16. Bit depth                                : 10 bits
  17. Bits/(Pixel*Frame)                       : 0.081
  18. Stream size                              : 11.7 GiB (94%)
  19. Language                                 : English
  20. Default                                  : Yes
  21. Forced                                   : No
  22. Color range                              : Limited
  23. Color primaries                          : BT.2020
  24. Transfer characteristics                 : PQ
  25. Matrix coefficients                      : BT.2020 non-constant
  26. Statistics Tags Issue                    : no_variable_data 1970-01-01 00:00:00 / no_variable_data 2010-02-22 21:41:29
  27. FromStats_BitRate                        : 16501276
  28. FromStats_Duration                       : 01:43:45.011000000
  29. FromStats_FrameCount                     : 149251
  30. FromStats_StreamSize                     : 12840078683

  31. Audio
  32. ID                                       : 2
  33. Format                                   : E-AC-3 JOC
  34. Format/Info                              : Enhanced AC-3 with Joint Object Coding
  35. Commercial name                          : Dolby Digital Plus with Dolby Atmos
  36. Codec ID                                 : A_EAC3
  37. Duration                                 : 1 h 43 min
  38. Bit rate mode                            : Constant
  39. Bit rate                                 : 768 kb/s
  40. Channel(s)                               : 6 channels
  41. Channel layout                           : L R C LFE Ls Rs
  42. Sampling rate                            : 48.0 kHz
  43. Frame rate                               : 31.250 FPS (1536 SPF)
  44. Compression mode                         : Lossy
  45. Stream size                              : 570 MiB (4%)
  46. Language                                 : English
  47. Service kind                             : Complete Main
  48. Default                                  : Yes
  49. Forced                                   : No
  50. Statistics Tags Issue                    : no_variable_data 1970-01-01 00:00:00 / no_variable_data 2010-02-22 21:41:29
  51. FromStats_BitRate                        : 768000
  52. FromStats_Duration                       : 01:43:45.024000000
  53. FromStats_FrameCount                     : 194532
  54. FromStats_StreamSize                     : 597602304
  55. Complexity index                         : 16
  56. Number of dynamic objects                : 15
  57. Bed channel count                        : 1 channel
  58. Bed channel configuration                : LFE

  59. Text #1
  60. ID                                       : 3
  61. Format                                   : UTF-8
  62. Codec ID                                 : S_TEXT/UTF8
  63. Codec ID/Info                            : UTF-8 Plain Text
  64. Title                                    : English (SDH)
  65. Language                                 : English
  66. Default                                  : No
  67. Forced                                   : No
  68. Statistics Tags Issue                    : no_variable_data 1970-01-01 00:00:00 / no_variable_data 2010-02-22 21:41:29
  69. FromStats_BitRate                        : 70
  70. FromStats_Duration                       : 01:42:16.760000000
  71. FromStats_FrameCount                     : 1849
  72. FromStats_StreamSize                     : 54441

  73. Text #2
  74. ID                                       : 4
  75. Format                                   : UTF-8
  76. Codec ID                                 : S_TEXT/UTF8
  77. Codec ID/Info                            : UTF-8 Plain Text
  78. Title                                    : Spanish (Latin American)
  79. Language                                 : Spanish
  80. Default                                  : No
  81. Forced                                   : No
  82. Statistics Tags Issue                    : no_variable_data 1970-01-01 00:00:00 / no_variable_data 2010-02-22 21:41:29
  83. FromStats_BitRate                        : 58
  84. FromStats_Duration                       : 01:42:10.960000000
  85. FromStats_FrameCount                     : 1213
  86. FromStats_StreamSize                     : 45046
复制代码

怪兽大学 Monsters.University.2013.HDR.2160p.WEB.H265-PETRiFiED 12.63GB-2.png 怪兽大学 Monsters.University.2013.HDR.2160p.WEB.H265-PETRiFiED 12.63GB-3.png 怪兽大学 Monsters.University.2013.HDR.2160p.WEB.H265-PETRiFiED 12.63GB-4.png







本帖隐藏的下载地址需要VIP会员才可阅读,您需要升级才可阅读,点击这里升级VIP
回复

使用道具 举报

懒得打字嘛,点击右侧快捷回复 【右侧内容,后台自定义】
您需要登录后才可以回帖 登录 | 立即注册

本版积分规则

Archiver|手机版|小黑屋| 中国高清网 |网站地图

GMT+8, 2020-2-28 23:57 , Processed in 0.170853 second(s), 38 queries .

Powered by HDchina X3.4

Copyright 2017-2019©HDchina.All right reserved

返回顶部 联系我们