查看: 187|回复: 0

[2160p-WEB] 雪宝的冰雪大冒险/冰雪奇缘番外短片 Olafs.Frozen.Adventure.2017.HDR.2160p.WEB.H265-PETRiFiED 2.63GB

[复制链接]

 成长值: 4200

级别:资源管理组

注册时间
2017-10-20
最后登录
2020-2-27
听众
1
收听
0
主题
92868
蓝光币
105016 枚
贡献
17230 点
发表于 2020-2-13 23:39:15 | 显示全部楼层 |阅读模式
雪宝的冰雪大冒险/冰雪奇缘番外短片 Olafs.Frozen.Adventure.2017.HDR.2160p.WEB.H265-PETRiFiED 2.63GB-1.png

译  名 雪宝的冰雪大冒险 / 冰雪奇缘番外短片 / 雪宝的佳节冒险
片  名 Olaf's Frozen Adventure
年  代 2017
产  地 美国
类  别 动画 / 短片 / 歌舞 / 奇异 / 冒险
语  言 英语
上映日期 2017-11-22(美国)
IMDb评分  5.4/10 from 10398 users
IMDb链接  https://www.imdb.com/title/tt5452780
豆瓣评分 7.8/10 from 3886 users
豆瓣链接 https://movie.douban.com/subject/27006488/
片  长 21分钟
导  演 凯文·迪特斯 Kevin Deters / 施特维·韦默斯 Stevie Wermers
编  剧 克里斯·巴克 Chris Buck / 珍妮弗·李 Jennifer Lee / 雅克·舍费尔 Jac Schaeffer
主  演 克里斯汀·贝尔 Kristen Bell
       伊迪娜·门泽尔 Idina Menzel
       乔什·加德 Josh Gad
       乔纳森·格罗夫 Jonathan Groff
       玛格·卡拉·苏西 Margaux Calla Susi


标  签 动画 | 短片 | 美国 | 迪士尼 | 冰雪奇缘 | 动画短片 | 2017 | 奇异

简  介  

  在阿伦黛尔城堡大门翻开后的第一个圣诞节前,安娜和艾莎为一切人预备了一个欣喜派对。但王国里的人们都不来加入,而是要按照自己家的传统与家人一路过节。安娜和艾莎多年没有在一路过圣诞节,是以没有家庭传统!为此,雪宝踏上了一场为姐妹俩寻觅最棒传统的冒险……
  《雪宝的冰雪大冒险》是迪士尼动画电影《冰雪奇缘》(Frozen)的第二部衍生短片,在2017年上映的皮克斯电影《寻梦周游记》(Coco)前贴片放映。

获奖情况  

  第45届动画安妮奖(2018)
  最好配乐(提名) 克里斯托弗·贝克
  最好动画结果(提名)
  最好特别动画(提名)
  1. Video
  2. ID                                       : 1
  3. Format                                   : HEVC
  4. Format/Info                              : High Efficiency Video Coding
  5. Format profile                           : Main High@L4@High
  6. Codec ID                                 : V_MPEGH/ISO/HEVC
  7. Duration                                 : 22 min 43 s
  8. Bit rate                                 : 15.3 Mb/s
  9. Width                                    : 3 840 pixels
  10. Height                                   : 2 160 pixels
  11. Display aspect ratio                     : 16:9
  12. Frame rate mode                          : Constant
  13. Frame rate                               : 23.976 (24000/1001) FPS
  14. Color space                              : YUV
  15. Chroma subsampling                       : 4:2:0
  16. Bit depth                                : 10 bits
  17. Bits/(Pixel*Frame)                       : 0.077
  18. Stream size                              : 2.43 GiB (96%)
  19. Language                                 : English
  20. Default                                  : Yes
  21. Forced                                   : No
  22. Color range                              : Limited
  23. Color primaries                          : BT.2020
  24. Transfer characteristics                 : PQ
  25. Matrix coefficients                      : BT.2020 non-constant
  26. Statistics Tags Issue                    : no_variable_data 1970-01-01 00:00:00 / no_variable_data 2010-02-22 21:41:29
  27. FromStats_BitRate                        : 15621946
  28. FromStats_Duration                       : 00:22:43.779000000
  29. FromStats_FrameCount                     : 32698
  30. FromStats_StreamSize                     : 2663110327

  31. Audio
  32. ID                                       : 2
  33. Format                                   : E-AC-3
  34. Format/Info                              : Enhanced AC-3
  35. Commercial name                          : Dolby Digital Plus
  36. Codec ID                                 : A_EAC3
  37. Duration                                 : 22 min 43 s
  38. Bit rate mode                            : Constant
  39. Bit rate                                 : 256 kb/s
  40. Channel(s)                               : 6 channels
  41. Channel layout                           : L R C LFE Ls Rs
  42. Sampling rate                            : 48.0 kHz
  43. Frame rate                               : 31.250 FPS (1536 SPF)
  44. Compression mode                         : Lossy
  45. Stream size                              : 41.6 MiB (2%)
  46. Language                                 : English
  47. Service kind                             : Complete Main
  48. Default                                  : Yes
  49. Forced                                   : No
  50. Statistics Tags Issue                    : no_variable_data 1970-01-01 00:00:00 / no_variable_data 2010-02-22 21:41:29
  51. FromStats_BitRate                        : 256000
  52. FromStats_Duration                       : 00:22:43.808000000
  53. FromStats_FrameCount                     : 42619
  54. FromStats_StreamSize                     : 43641856

  55. Text #1
  56. ID                                       : 3
  57. Format                                   : UTF-8
  58. Codec ID                                 : S_TEXT/UTF8
  59. Codec ID/Info                            : UTF-8 Plain Text
  60. Title                                    : English (SDH)
  61. Language                                 : English
  62. Default                                  : No
  63. Forced                                   : No
  64. Statistics Tags Issue                    : no_variable_data 1970-01-01 00:00:00 / no_variable_data 2010-02-22 21:41:29
  65. FromStats_BitRate                        : 88
  66. FromStats_Duration                       : 00:20:57.080000000
  67. FromStats_FrameCount                     : 446
  68. FromStats_StreamSize                     : 13890

  69. Text #2
  70. ID                                       : 4
  71. Format                                   : UTF-8
  72. Codec ID                                 : S_TEXT/UTF8
  73. Codec ID/Info                            : UTF-8 Plain Text
  74. Title                                    : Spanish (Latin American)
  75. Language                                 : Spanish
  76. Default                                  : No
  77. Forced                                   : No
  78. Statistics Tags Issue                    : no_variable_data 1970-01-01 00:00:00 / no_variable_data 2010-02-22 21:41:29
  79. FromStats_BitRate                        : 73
  80. FromStats_Duration                       : 00:20:58.600000000
  81. FromStats_FrameCount                     : 355
  82. FromStats_StreamSize                     : 11594

  83. Text #3
  84. ID                                       : 5
  85. Format                                   : UTF-8
  86. Codec ID                                 : S_TEXT/UTF8
  87. Codec ID/Info                            : UTF-8 Plain Text
  88. Title                                    : Dutch
  89. Language                                 : Dutch
  90. Default                                  : No
  91. Forced                                   : No
  92. Statistics Tags Issue                    : no_variable_data 1970-01-01 00:00:00 / no_variable_data 2010-02-22 21:41:29
  93. FromStats_BitRate                        : 63
  94. FromStats_Duration                       : 00:20:58.640000000
  95. FromStats_FrameCount                     : 270
  96. FromStats_StreamSize                     : 9994
复制代码

雪宝的冰雪大冒险/冰雪奇缘番外短片 Olafs.Frozen.Adventure.2017.HDR.2160p.WEB.H265-PETRiFiED 2.63GB-2.png 雪宝的冰雪大冒险/冰雪奇缘番外短片 Olafs.Frozen.Adventure.2017.HDR.2160p.WEB.H265-PETRiFiED 2.63GB-3.png 雪宝的冰雪大冒险/冰雪奇缘番外短片 Olafs.Frozen.Adventure.2017.HDR.2160p.WEB.H265-PETRiFiED 2.63GB-4.png







本帖隐藏的下载地址需要VIP会员才可阅读,您需要升级才可阅读,点击这里升级VIP
回复

使用道具 举报

懒得打字嘛,点击右侧快捷回复 【右侧内容,后台自定义】
您需要登录后才可以回帖 登录 | 立即注册

本版积分规则

Archiver|手机版|小黑屋| 中国高清网 |网站地图

GMT+8, 2020-2-27 13:23 , Processed in 0.147986 second(s), 38 queries .

Powered by HDchina X3.4

Copyright 2017-2019©HDchina.All right reserved

返回顶部 联系我们