查看: 160|回复: 3

[惊悚片] 斧刃 Edge.of.the.Axe.1988.1080p.BluRay.x264-GHOULS 6.57GB

[复制链接]

 成长值: 4210

级别:资源管理组

注册时间
2017-10-20
最后登录
2020-2-28
听众
1
收听
0
主题
92959
蓝光币
105999 枚
贡献
17321 点
发表于 2020-2-11 22:51:47 | 显示全部楼层 |阅读模式
斧刃 Edge.of.the.Axe.1988.1080p.BluRay.x264-GHOULS 6.57GB-1.png

译  名 斧刃 / Al filo del hacha
片  名 Edge of the Axe
年  代 1988
产  地 西班牙 / 美国
类  别 惊悚 / 可骇
语  言 英语
上映日期 1988-05-20
IMDb评分  5.4/10 from 429 users
IMDb链接  https://www.imdb.com/title/tt0094627
豆瓣评分 0/10 from 0 users
豆瓣链接 https://movie.douban.com/subject/3347387/
导  演 何塞·拉蒙·拉斯 José Ramón Larraz
编  剧 Joaquín Amichatis / Javier Elorrieta / José Frade / 胡安·巴勃罗·德·圣地亚哥 Juan Pablo de Santiago
主  演 Barton Faulks
       Christina Marie Lane
       Page Mosely


标  签 可骇 | 惊悚 | 悬疑 | 面具 | 杀人狂 | 妖妖舞 | 血腥 | 美国电影

简  介  

  暂无相关剧情先容
  1. Video
  2. ID                                       : 1
  3. Format                                   : AVC
  4. Format/Info                              : Advanced Video Codec
  5. Format profile                           : High@L4
  6. Format settings                          : CABAC / 4 Ref Frames
  7. Format settings, CABAC                   : Yes
  8. Format settings, Reference frames        : 4 frames
  9. Codec ID                                 : V_MPEG4/ISO/AVC
  10. Duration                                 : 1 h 31 min
  11. Bit rate                                 : 9 060 kb/s
  12. Width                                    : 1 920 pixels
  13. Height                                   : 1 040 pixels
  14. Display aspect ratio                     : 1.85:1
  15. Frame rate mode                          : Constant
  16. Frame rate                               : 23.976 (24000/1001) FPS
  17. Color space                              : YUV
  18. Chroma subsampling                       : 4:2:0
  19. Bit depth                                : 8 bits
  20. Scan type                                : Progressive
  21. Bits/(Pixel*Frame)                       : 0.189
  22. Stream size                              : 5.77 GiB (88%)
  23. Writing library                          : x264 core 159 r2991 1771b55
  24. Encoding settings                        : cabac=1 / ref=4 / deblock=1:-3:-3 / analyse=0x3:0x133 / me=umh / subme=9 / psy=1 / psy_rd=1.00:0.00 / mixed_ref=1 / me_range=24 / chroma_me=1 / trellis=1 / 8x8dct=1 / cqm=0 / deadzone=21,11 / fast_pskip=0 / chroma_qp_offset=-2 / threads=24 / lookahead_threads=4 / sliced_threads=0 / nr=0 / decimate=1 / interlaced=0 / bluray_compat=0 / constrained_intra=0 / bframes=8 / b_pyramid=2 / b_adapt=2 / b_bias=0 / direct=3 / weightb=1 / open_gop=0 / weightp=2 / keyint=250 / keyint_min=23 / scenecut=40 / intra_refresh=0 / rc_lookahead=60 / rc=2pass / mbtree=1 / bitrate=9060 / ratetol=1.0 / qcomp=0.60 / qpmin=0 / qpmax=69 / qpstep=4 / cplxblur=20.0 / qblur=0.5 / vbv_maxrate=62500 / vbv_bufsize=78125 / nal_hrd=none / filler=0 / ip_ratio=1.40 / aq=1:1.00
  25. Default                                  : Yes
  26. Forced                                   : No

  27. Audio #1
  28. ID                                       : 2
  29. Format                                   : FLAC
  30. Format/Info                              : Free Lossless Audio Codec
  31. Codec ID                                 : A_FLAC
  32. Duration                                 : 1 h 31 min
  33. Bit rate mode                            : Variable
  34. Bit rate                                 : 608 kb/s
  35. Channel(s)                               : 1 channel
  36. Channel layout                           : C
  37. Sampling rate                            : 48.0 kHz
  38. Frame rate                               : 10.417 FPS (4608 SPF)
  39. Bit depth                                : 24 bits
  40. Compression mode                         : Lossless
  41. Stream size                              : 396 MiB (6%)
  42. Writing library                          : Lavf58.29.100
  43. Language                                 : English
  44. Default                                  : No
  45. Forced                                   : No

  46. Audio #2
  47. ID                                       : 3
  48. Format                                   : FLAC
  49. Format/Info                              : Free Lossless Audio Codec
  50. Codec ID                                 : A_FLAC
  51. Duration                                 : 1 h 31 min
  52. Bit rate mode                            : Variable
  53. Bit rate                                 : 627 kb/s
  54. Channel(s)                               : 1 channel
  55. Channel layout                           : C
  56. Sampling rate                            : 48.0 kHz
  57. Frame rate                               : 10.417 FPS (4608 SPF)
  58. Bit depth                                : 24 bits
  59. Compression mode                         : Lossless
  60. Stream size                              : 409 MiB (6%)
  61. Writing library                          : Lavf58.29.100
  62. Language                                 : Spanish
  63. Default                                  : Yes
  64. Forced                                   : No

  65. Text
  66. ID                                       : 4
  67. Format                                   : UTF-8
  68. Codec ID                                 : S_TEXT/UTF8
  69. Codec ID/Info                            : UTF-8 Plain Text
  70. Duration                                 : 1 h 29 min
  71. Bit rate                                 : 39 b/s
  72. Count of elements                        : 825
  73. Stream size                              : 25.8 KiB (0%)
  74. Language                                 : English
  75. Default                                  : Yes
  76. Forced                                   : No

  77. Menu
  78. 00:00:00.000                             : en:Chapter 01
  79. 00:08:46.401                             : en:Chapter 02
  80. 00:15:53.160                             : en:Chapter 03
  81. 00:22:26.470                             : en:Chapter 04
  82. 00:30:55.479                             : en:Chapter 05
  83. 00:36:43.409                             : en:Chapter 06
  84. 00:44:51.564                             : en:Chapter 07
  85. 00:52:39.364                             : en:Chapter 08
  86. 00:58:04.523                             : en:Chapter 09
  87. 01:05:56.661                             : en:Chapter 10
  88. 01:12:07.949                             : en:Chapter 11
  89. 01:18:35.085                             : en:Chapter 12
复制代码

斧刃 Edge.of.the.Axe.1988.1080p.BluRay.x264-GHOULS 6.57GB-2.png






回复

使用道具 举报

级别:专业龙套 Lv.4

注册时间
2019-12-4
最后登录
2020-2-28
听众
1
收听
0
主题
0
蓝光币
104 枚
贡献
0 点
发表于 2020-2-12 10:29:27 | 显示全部楼层

这东西我收了!谢谢楼主!中国高清电影网真好!
回复

使用道具 举报

级别:群众演员 Lv.3

注册时间
2019-11-4
最后登录
2020-2-28
听众
1
收听
0
主题
0
蓝光币
97 枚
贡献
0 点
发表于 2020-2-14 06:31:23 | 显示全部楼层
楼主发贴辛苦了,谢谢楼主分享!我觉得中国高清电影网是注册对了!
回复

使用道具 举报

级别:专业龙套 Lv.4

注册时间
2019-12-18
最后登录
2020-2-23
听众
1
收听
0
主题
0
蓝光币
11 枚
贡献
0 点
发表于 2020-2-14 16:04:32 | 显示全部楼层

我看不错噢 谢谢楼主!中国高清电影网越来越好!
回复

使用道具 举报

懒得打字嘛,点击右侧快捷回复 【右侧内容,后台自定义】
您需要登录后才可以回帖 登录 | 立即注册

本版积分规则

Archiver|手机版|小黑屋| 中国高清网 |网站地图

GMT+8, 2020-2-28 23:42 , Processed in 0.151254 second(s), 37 queries .

Powered by HDchina X3.4

Copyright 2017-2019©HDchina.All right reserved

返回顶部 联系我们