查看: 271|回复: 9

[剧情片] 乔乔的异想世界/JOJO兔 Jojo.Rabbit.2019.1080p.BluRay.x264.DTS-HD.MA.5.1-FGT 9.08GB

[复制链接]

 成长值: 4210

级别:资源管理组

注册时间
2017-10-20
最后登录
2020-2-28
听众
1
收听
0
主题
92951
蓝光币
105983 枚
贡献
17313 点
发表于 2020-2-11 22:50:44 | 显示全部楼层 |阅读模式
乔乔的异想天下/JOJO兔 Jojo.Rabbit.2019.1080p.BluRay.x264.DTS-HD.MA.5.1-FGT 9.08GB-1.png

译  名 乔乔的异想天下 / JOJO兔 / 乔乔兔 / 兔嘲男孩(台) / 少年乔乔的异想天下 / 陽光兔仔兵 (港)
片  名 Jojo Rabbit
年  代 2019
产  地 美国 / 捷克 / 新西兰
类  别 剧情 / 笑剧 / 战争
语  言 英语 / 德语
上映日期 2019-09-08(多伦多电影节) / 2019-11-08(美国) / 2020(中国大陆)
IMDb评分  8.0/10 from 88626 users
IMDb链接  https://www.imdb.com/title/tt2584384
豆瓣评分 8.4/10 from 44333 users
豆瓣链接 https://movie.douban.com/subject/30170546/
片  长 108分钟
导  演 塔伊加·维迪提 Taika Waititi
编  剧 塔伊加·维迪提 Taika Waititi / 克里斯汀·勒南斯 Christine Leunens
主  演 罗曼·格里芬·戴维斯 Roman Griffin Davis
       托马辛·麦肯齐 Thomasin McKenzie
       斯嘉丽·约翰逊 Scarlett Johansson
       塔伊加·维迪提 Taika Waititi
       山姆·洛克威尔 Sam Rockwell
       蕾蓓尔·威尔森 Rebel Wilson
       阿尔菲·艾伦 Alfie Allen
       斯戴芬·莫昌特 Stephen Merchant
       阿奇·耶茨 Archie Yates
       卢克·布兰登·菲尔德 Luke Brandon Field
       山姆·海加斯 Sam Haygarth
       史丹斯拉夫·卡拉斯 Stanislav Callas
       乔·温特劳布 Joe Weintraub
       布莱恩·卡斯佩 Brian Caspe
       加布里埃尔·安德鲁斯 Gabriel Andrews
       罗伯特·伊斯特 Robert East
       比利·雷纳 Billy Rayner
       克里斯蒂安·豪林斯 Christian Howlings
       吉尔比·格里芬·戴维斯 Gilby Griffin Davis
       哈迪·格里芬·戴维斯 Hardy Griffin Davis
       柯蒂斯·马修 Curtis Matthew
       贝萨尼·亚当斯 Bethany Adams
       朱迪思·乔治 Judith Georgi
       维多利亚·霍根 Victoria Hogan


标  签 二战 | 笑剧 | 战争 | 美国 | 德国 | 剧情 | 奇异 | 2019

简  介  

  二战期间,男孩乔乔(戴维斯)和母亲(斯嘉丽)生活在纳粹德国统治下,他不晓得母亲在家中藏着一个犹太女孩(麦肯齐),而母亲奥秘为抵抗军工作。乔乔渴望加入希特勒青年团,他脑内出了一个倾覆版的希特勒,这个希特勒有魅力、傻傻的、天至心爱,是他的朋友,帮助他对付生活中的窘境。

获奖情况  

  第92届奥斯卡金像奖(2020)
  最好影片(提名) 塔伊加·维迪提 / Carthew Neal
  最好女配角(提名) 斯嘉丽·约翰逊
  最好改编剧本(提名) 塔伊加·维迪提
  最好剪辑(提名) 汤姆·伊格尔斯
  最好艺术指导(提名)
  最好打扮设想(提名) 玛耶斯·C·鲁贝奥

  第77届金球奖(2020)
  电影类 最好音乐/笑剧片(提名)
  电影类 音乐/笑剧片最好男配角(提名) 罗曼·格里芬·戴维斯

  第73届英国电影学院奖(2020)
  电影奖 最好女配角(提名) 斯嘉丽·约翰逊
  电影奖 最好改编剧本 塔伊加·维迪提
  电影奖 最好剪辑(提名) 汤姆·伊格尔斯
  电影奖 最好打扮设想(提名) 玛耶斯·C·鲁贝奥
  电影奖 最好艺术指导(提名) 拉·文森特 / Nora Sopková
  电影奖 最好原创配乐(提名) 迈克·吉亚奇诺

  第44届多伦多国际电影节(2019)
  观众挑选奖 塔伊加·维迪提

  第72届美国导演工会奖(2020)
  最好电影导演(提名) 塔伊加·维迪提

  第26届美国演员工会奖(2020)
  电影奖 最好女配角(提名) 斯嘉丽·约翰逊
  电影奖 最好群戏(提名)

  第72届美国编剧工会奖(2020)
  电影奖 最好改编剧本 塔伊加·维迪提

  第31届美国制片野生会奖(2020)
  最好电影制片人奖(提名)

  第70届美国剪辑工会奖(2020)
  音乐/笑剧片最好剪辑 汤姆·伊格尔斯

  第24届美国艺术指导工会奖(2020)
  电影奖 最好历史电影艺术指导(提名) 拉·文森特

  第22届美国打扮设想工会奖(2020)
  年月电影最好打扮设想 玛耶斯·C·鲁贝奥

  第67届美国音效剪辑协会奖(2020)
  金卷轴奖 最好电影对白剪辑(提名)

  第91届美国国家批评协会奖(2019)
  年度佳片

  第25届美国批评家挑选电影奖(2020)
  最好影片(提名)
  最好女配角(提名) 斯嘉丽·约翰逊
  最好青少年演员 罗曼·格里芬·戴维斯
  最好青少年演员(提名) 托马辛·麦肯齐 / 阿奇·耶茨
  最好笑剧片(提名)
  最好改编剧本(提名) 塔伊加·维迪提

  第20届美国电影学会奖(2019)
  年度佳片

  第24届金卫星奖(2020)
  电影部分 笑剧/音乐片最好男配角(提名) 塔伊加·维迪提
  电影部分 最好改编剧本(提名) 塔伊加·维迪提

  第23届好莱坞电影奖(2019)
  年度摄影奖 小米哈伊·马拉米尔
  年度艺术指导 拉·文森特

  第18届华盛顿影评人协会奖(2019)
  最好青少年表演 罗曼·格里芬·戴维斯

  第40届伦敦影评人协会奖(2020)
  年度英国/爱尔兰小演员(提名) 罗曼·格里芬·戴维斯

  第32届芝加哥影评人协会奖(2019)
  最好改编剧本(提名) 塔伊加·维迪提
  最具潜力演员(提名) 罗曼·格里芬·戴维斯

  第23届美国在线影评人协会奖(2020)
  最好影片(提名)
  最好改编剧本(提名) 塔伊加·维迪提
  1. Video
  2. ID                                       : 1
  3. Format                                   : AVC
  4. Format/Info                              : Advanced Video Codec
  5. Format profile                           : High@L4
  6. Format settings                          : CABAC / 4 Ref Frames
  7. Format settings, CABAC                   : Yes
  8. Format settings, Reference frames        : 4 frames
  9. Codec ID                                 : V_MPEG4/ISO/AVC
  10. Duration                                 : 1 h 48 min
  11. Bit rate                                 : 8 603 kb/s
  12. Width                                    : 1 920 pixels
  13. Height                                   : 1 040 pixels
  14. Display aspect ratio                     : 1.85:1
  15. Frame rate mode                          : Constant
  16. Frame rate                               : 23.976 (24000/1001) FPS
  17. Color space                              : YUV
  18. Chroma subsampling                       : 4:2:0
  19. Bit depth                                : 8 bits
  20. Scan type                                : Progressive
  21. Bits/(Pixel*Frame)                       : 0.180
  22. Stream size                              : 6.51 GiB (72%)
  23. Title                                    : Jojo.Rabbit.2019.1080p.BluRay.x264.DTS-HD.MA.5.1-FGT
  24. Writing library                          : x264 core 159 r2991 1771b55
  25. Encoding settings                        : cabac=1 / ref=4 / deblock=1:-3:-3 / analyse=0x3:0x133 / me=umh / subme=7 / psy=1 / psy_rd=1.00:0.00 / mixed_ref=1 / me_range=16 / chroma_me=1 / trellis=2 / 8x8dct=1 / cqm=0 / deadzone=21,11 / fast_pskip=1 / chroma_qp_offset=-2 / threads=16 / lookahead_threads=2 / sliced_threads=0 / nr=0 / decimate=1 / interlaced=0 / bluray_compat=0 / constrained_intra=0 / bframes=3 / b_pyramid=2 / b_adapt=2 / b_bias=0 / direct=3 / weightb=1 / open_gop=0 / weightp=2 / keyint=250 / keyint_min=23 / scenecut=40 / intra_refresh=0 / rc_lookahead=50 / rc=2pass / mbtree=1 / bitrate=8603 / ratetol=1.0 / qcomp=0.60 / qpmin=0 / qpmax=69 / qpstep=4 / cplxblur=20.0 / qblur=0.5 / ip_ratio=1.40 / aq=1:1.00
  26. Language                                 : English
  27. Default                                  : Yes
  28. Forced                                   : No
  29. Color range                              : Limited
  30. Matrix coefficients                      : BT.709

  31. Audio
  32. ID                                       : 2
  33. Format                                   : DTS XLL
  34. Format/Info                              : Digital Theater Systems
  35. Commercial name                          : DTS-HD Master Audio
  36. Codec ID                                 : A_DTS
  37. Duration                                 : 1 h 48 min
  38. Bit rate mode                            : Variable
  39. Bit rate                                 : 3 341 kb/s
  40. Channel(s)                               : 6 channels
  41. Channel layout                           : C L R Ls Rs LFE
  42. Sampling rate                            : 48.0 kHz
  43. Frame rate                               : 93.750 FPS (512 SPF)
  44. Bit depth                                : 24 bits
  45. Compression mode                         : Lossless
  46. Stream size                              : 2.53 GiB (28%)
  47. Title                                    : Jojo.Rabbit.2019.1080p.BluRay.x264.DTS-HD.MA.5.1-FGT
  48. Language                                 : English
  49. Default                                  : Yes
  50. Forced                                   : No

  51. Text #1
  52. ID                                       : 3
  53. Format                                   : UTF-8
  54. Codec ID                                 : S_TEXT/UTF8
  55. Codec ID/Info                            : UTF-8 Plain Text
  56. Duration                                 : 1 h 45 min
  57. Bit rate                                 : 62 b/s
  58. Count of elements                        : 1633
  59. Stream size                              : 48.2 KiB (0%)
  60. Title                                    : English-SRT
  61. Language                                 : English
  62. Default                                  : Yes
  63. Forced                                   : No

  64. Text #2
  65. ID                                       : 4
  66. Format                                   : PGS
  67. Muxing mode                              : zlib
  68. Codec ID                                 : S_HDMV/PGS
  69. Codec ID/Info                            : Picture based subtitle format used on BDs/HD-DVDs
  70. Duration                                 : 1 h 48 min
  71. Bit rate                                 : 40.7 kb/s
  72. Count of elements                        : 3588
  73. Stream size                              : 31.5 MiB (0%)
  74. Title                                    : English-PGS
  75. Language                                 : English
  76. Default                                  : No
  77. Forced                                   : No

  78. Text #3
  79. ID                                       : 5
  80. Format                                   : PGS
  81. Muxing mode                              : zlib
  82. Codec ID                                 : S_HDMV/PGS
  83. Codec ID/Info                            : Picture based subtitle format used on BDs/HD-DVDs
  84. Duration                                 : 1 h 47 min
  85. Bit rate                                 : 33.8 kb/s
  86. Count of elements                        : 2910
  87. Stream size                              : 26.0 MiB (0%)
  88. Title                                    : Spanish-PGS
  89. Language                                 : Spanish
  90. Default                                  : No
  91. Forced                                   : No

  92. Text #4
  93. ID                                       : 6
  94. Format                                   : PGS
  95. Muxing mode                              : zlib
  96. Codec ID                                 : S_HDMV/PGS
  97. Codec ID/Info                            : Picture based subtitle format used on BDs/HD-DVDs
  98. Duration                                 : 24 min 56 s
  99. Bit rate                                 : 593 b/s
  100. Count of elements                        : 12
  101. Stream size                              : 108 KiB (0%)
  102. Title                                    : Spanish-PGS
  103. Language                                 : Spanish
  104. Default                                  : No
  105. Forced                                   : No

  106. Text #5
  107. ID                                       : 7
  108. Format                                   : PGS
  109. Muxing mode                              : zlib
  110. Codec ID                                 : S_HDMV/PGS
  111. Codec ID/Info                            : Picture based subtitle format used on BDs/HD-DVDs
  112. Duration                                 : 1 h 47 min
  113. Bit rate                                 : 35.5 kb/s
  114. Count of elements                        : 2864
  115. Stream size                              : 27.4 MiB (0%)
  116. Title                                    : French-PGS
  117. Language                                 : French
  118. Default                                  : No
  119. Forced                                   : No

  120. Text #6
  121. ID                                       : 8
  122. Format                                   : PGS
  123. Muxing mode                              : zlib
  124. Codec ID                                 : S_HDMV/PGS
  125. Codec ID/Info                            : Picture based subtitle format used on BDs/HD-DVDs
  126. Duration                                 : 1 h 44 min
  127. Bit rate                                 : 126 b/s
  128. Count of elements                        : 12
  129. Stream size                              : 96.1 KiB (0%)
  130. Title                                    : French-PGS
  131. Language                                 : French
  132. Default                                  : No
  133. Forced                                   : No

  134. Menu
  135. 00:00:00.000                             : en:Chapter 01
  136. 00:06:04.655                             : en:Chapter 02
  137. 00:09:25.523                             : en:Chapter 03
  138. 00:13:34.522                             : en:Chapter 04
  139. 00:16:17.059                             : en:Chapter 05
  140. 00:20:09.333                             : en:Chapter 06
  141. 00:27:09.169                             : en:Chapter 07
  142. 00:31:02.861                             : en:Chapter 08
  143. 00:36:29.812                             : en:Chapter 09
  144. 00:39:45.966                             : en:Chapter 10
  145. 00:44:13.192                             : en:Chapter 11
  146. 00:49:53.782                             : en:Chapter 12
  147. 00:53:17.194                             : en:Chapter 13
  148. 00:59:35.113                             : en:Chapter 14
  149. 01:03:34.018                             : en:Chapter 15
  150. 01:08:32.483                             : en:Chapter 16
  151. 01:14:20.497                             : en:Chapter 17
  152. 01:17:36.276                             : en:Chapter 18
  153. 01:22:13.720                             : en:Chapter 19
  154. 01:26:20.300                             : en:Chapter 20
  155. 01:29:24.525                             : en:Chapter 21
  156. 01:32:28.042                             : en:Chapter 22
  157. 01:37:15.037                             : en:Chapter 23
  158. 01:41:03.015                             : en:Chapter 24
复制代码

乔乔的异想天下/JOJO兔 Jojo.Rabbit.2019.1080p.BluRay.x264.DTS-HD.MA.5.1-FGT 9.08GB-2.png 乔乔的异想天下/JOJO兔 Jojo.Rabbit.2019.1080p.BluRay.x264.DTS-HD.MA.5.1-FGT 9.08GB-3.png 乔乔的异想天下/JOJO兔 Jojo.Rabbit.2019.1080p.BluRay.x264.DTS-HD.MA.5.1-FGT 9.08GB-1.png






本帖隐藏的下载地址需要VIP会员才可阅读,您需要升级才可阅读,点击这里升级VIP
回复

使用道具 举报

级别:领衔主演 Lv.6

注册时间
2018-2-26
最后登录
2020-2-28
听众
16
收听
0
主题
0
蓝光币
240 枚
贡献
0 点
发表于 2020-2-12 09:19:00 | 显示全部楼层

我看不错噢 谢谢楼主!中国高清电影网越来越好!
回复

使用道具 举报

级别:群众演员 Lv.3

注册时间
2019-12-6
最后登录
2020-2-27
听众
1
收听
0
主题
0
蓝光币
65 枚
贡献
0 点
QQ
发表于 2020-2-12 12:18:41 | 显示全部楼层

楼主太厉害了!楼主,电影应该很好看我觉得中国高清电影网真是个好地方!
回复

使用道具 举报

级别:专业龙套 Lv.4

注册时间
2019-4-24
最后登录
2020-2-25
听众
14
收听
0
主题
0
蓝光币
232 枚
贡献
0 点
发表于 2020-2-12 15:50:38 | 显示全部楼层

楼主太厉害了!楼主,电影应该很好看我觉得中国高清电影网真是个好地方!
回复

使用道具 举报

级别:初级观众 Lv.1

注册时间
2020-2-7
最后登录
2020-2-13
听众
1
收听
0
主题
0
蓝光币
8 枚
贡献
0 点
发表于 2020-2-13 22:59:37 | 显示全部楼层
楼主太厉害了!楼主,电影应该很好看我觉得中国高清电影网真是个好地方!
回复

使用道具 举报

级别:普通观众 Lv.2

注册时间
2019-4-23
最后登录
2020-2-26
听众
12
收听
0
主题
0
蓝光币
42 枚
贡献
0 点
QQ
发表于 2020-2-14 08:37:52 | 显示全部楼层
楼主发贴辛苦了,谢谢楼主分享!我觉得中国高清电影网是注册对了!
回复

使用道具 举报

级别:普通观众 Lv.2

注册时间
2019-6-30
最后登录
2020-2-28
听众
4
收听
0
主题
0
蓝光币
70 枚
贡献
0 点
发表于 2020-2-14 14:39:09 | 显示全部楼层
楼主发贴辛苦了,谢谢楼主分享!我觉得中国高清电影网是注册对了!
回复

使用道具 举报

级别:群众演员 Lv.3

注册时间
2020-2-4
最后登录
2020-2-28
听众
1
收听
0
主题
0
蓝光币
22 枚
贡献
0 点
发表于 2020-2-14 15:51:35 | 显示全部楼层
楼主发贴辛苦了,谢谢楼主分享!我觉得中国高清电影网是注册对了!
回复

使用道具 举报

级别:初级观众 Lv.1

注册时间
2018-12-21
最后登录
2020-2-26
听众
8
收听
0
主题
0
蓝光币
7 枚
贡献
0 点
发表于 2020-2-14 16:10:56 | 显示全部楼层
看过片段,好像很幽默的电影
回复

使用道具 举报

级别:初级观众 Lv.1

注册时间
2020-2-18
最后登录
2020-2-18
听众
1
收听
0
主题
0
蓝光币
0 枚
贡献
0 点
发表于 2020-2-18 00:22:48 | 显示全部楼层


我看不错噢 谢谢楼主!中国高清电影网越来越好!
回复

使用道具 举报

懒得打字嘛,点击右侧快捷回复 【右侧内容,后台自定义】
您需要登录后才可以回帖 登录 | 立即注册

本版积分规则

Archiver|手机版|小黑屋| 中国高清网 |网站地图

GMT+8, 2020-2-28 23:32 , Processed in 0.223377 second(s), 38 queries .

Powered by HDchina X3.4

Copyright 2017-2019©HDchina.All right reserved

返回顶部 联系我们