查看: 285|回复: 3

[2160p-WEB] 星球大战前传1:幽灵的威胁/星战前传之魅影危机 Star.Wars.Episode.I.The.Phantom.Menace.1999.HDR.2160p.WEB.H265-PETRiFiED 16.50GB

[复制链接]

 成长值: 4210

级别:资源管理组

注册时间
2017-10-20
最后登录
2020-2-28
听众
1
收听
0
主题
92951
蓝光币
105975 枚
贡献
17313 点
发表于 2020-2-9 12:55:49 | 显示全部楼层 |阅读模式
星球大战前传1:鬼魂的威胁/星战前传之魅影危机 Star.Wars.Episode.I.The.Phantom.Menace.1999.HDR.2160p.WEB.H265-PETRiFiED 16.50GB-1.png

译  名 星球大战前传1:鬼魂的威胁 / 星战前传之魅影危机 / 星球大战前传I:魅影危机(港) / 星球大战第一集:鬼魂的威胁 / 星际大战首部曲:威胁潜伏(台)
片  名 Star Wars: Episode I - The Phantom Menace
年  代 1999
产  地 美国
类  别 行动 / 科幻 / 冒险
语  言 英语
上映日期 1999-05-19(美国) / 1999-11-05(中国大陆) / 2012-02-10(美国)
IMDb评分  6.5/10 from 691209 users
IMDb链接  https://www.imdb.com/title/tt0120915
豆瓣评分 8.1/10 from 87231 users
豆瓣链接 https://movie.douban.com/subject/1294362/
片  长 136 分钟
导  演 乔治·卢卡斯 George Lucas
编  剧 乔治·卢卡斯 George Lucas
主  演 连姆·尼森 Liam Neeson
       伊万·麦克格雷格 Ewan McGregor
       娜塔莉·波特曼 Natalie Portman
       杰克·洛伊德 Jake Lloyd
       伊恩·麦克迪阿梅德 Ian McDiarmid
       潘妮拉·奥古斯特 Pernilla August
       奥利弗·福德·戴维斯 Oliver Ford Davies
       阿梅德·贝斯特 Ahmed Best
       安东尼·丹尼尔斯 Anthony Daniels
       肯尼·贝克 Kenny Baker
       弗兰克·奥兹 Frank Oz
       特伦斯·斯坦普 Terence Stamp
       布耐恩·布莱塞得 Brian Blessed
       安德鲁·斯考姆比 Andrew Secombe
       休·夸希 Hugh Quarshie


标  签 科幻 | 星球大战 | 美国 | 典范 | 1999 | 行动 | 冒险 | 战争

简  介  

  作为星球大战前传系列的首部曲,这部电影诞生了一个重要的人物:阿纳金(杰克·洛伊德 Jake Lloyd  . 饰)。银河国会会议上出现了好处争论,纳布星的女王阿米达拉(娜塔丽·波特曼 Natalie Portman   饰)被贸易同盟绑架并威胁签订新的贸易协议。绝地军人奎刚(连姆·尼森 Liam Neeson 饰)及徒弟欧比-旺?肯诺比(伊万·麦克格雷格 Ewan McGregor  饰)受命前往处理胶葛,保护战争。他们的飞船在塔图因星意外下降的时辰碰到了阿纳金而且带走了他。
  在奇异天赋少年阿纳金等人的帮助下,奎刚及欧比-旺与贸易同盟的机械人军队和西斯军人展开了决战.....

获奖情况  

  第72届奥斯卡金像奖(2000)
  最好视觉结果(提名) 丹尼斯·穆伦 / Rob Coleman / 约翰·诺尔 / Scott Squires
  最好音效剪辑(提名) 汤姆·贝尔福特 / 本·贝尔特
  最好声响(提名) 嘉里·瑞德斯托姆 / 约翰·米奇利 / Shawn Murphy / 汤姆·约翰逊

  第53届英国电影学院奖(2000)
  电影奖 最好特别视觉结果(提名) Rob Coleman / 丹尼斯·穆伦 / Scott Squires / 约翰·诺尔
  电影奖 最好音效(提名) 汤姆·约翰逊 / 汤姆·贝尔福特 / 约翰·米奇利 / Shawn Murphy / 嘉里·瑞德斯托姆 / 本·贝尔特 / 汤姆·约翰逊 / 汤姆·贝尔福特 / 约翰·米奇利 / Shawn Murphy / 嘉里·瑞德斯托姆 / 本·贝尔特
  1. Video
  2. ID                                       : 1
  3. Format                                   : HEVC
  4. Format/Info                              : High Efficiency Video Coding
  5. Format profile                           : Main High@L4@High
  6. Codec ID                                 : V_MPEGH/ISO/HEVC
  7. Duration                                 : 2 h 16 min
  8. Bit rate                                 : 16.5 Mb/s
  9. Width                                    : 3 840 pixels
  10. Height                                   : 2 160 pixels
  11. Display aspect ratio                     : 16:9
  12. Frame rate mode                          : Constant
  13. Frame rate                               : 23.976 (24000/1001) FPS
  14. Color space                              : YUV
  15. Chroma subsampling                       : 4:2:0
  16. Bit depth                                : 10 bits
  17. Bits/(Pixel*Frame)                       : 0.083
  18. Stream size                              : 15.7 GiB (96%)
  19. Language                                 : English
  20. Default                                  : Yes
  21. Forced                                   : No
  22. Color range                              : Limited
  23. Color primaries                          : BT.2020
  24. Transfer characteristics                 : PQ
  25. Matrix coefficients                      : BT.2020 non-constant

  26. Audio
  27. ID                                       : 2
  28. Format                                   : E-AC-3 JOC
  29. Format/Info                              : Enhanced AC-3 with Joint Object Coding
  30. Commercial name                          : Dolby Digital Plus with Dolby Atmos
  31. Codec ID                                 : A_EAC3
  32. Duration                                 : 2 h 16 min
  33. Bit rate mode                            : Constant
  34. Bit rate                                 : 768 kb/s
  35. Channel(s)                               : 6 channels
  36. Channel layout                           : L R C LFE Ls Rs
  37. Sampling rate                            : 48.0 kHz
  38. Frame rate                               : 31.250 FPS (1536 SPF)
  39. Compression mode                         : Lossy
  40. Stream size                              : 748 MiB (4%)
  41. Language                                 : English
  42. Service kind                             : Complete Main
  43. Default                                  : Yes
  44. Forced                                   : No
  45. Complexity index                         : 16
  46. Number of dynamic objects                : 15
  47. Bed channel count                        : 1 channel
  48. Bed channel configuration                : LFE

  49. Text #1
  50. ID                                       : 3
  51. Format                                   : UTF-8
  52. Codec ID                                 : S_TEXT/UTF8
  53. Codec ID/Info                            : UTF-8 Plain Text
  54. Duration                                 : 2 h 14 min
  55. Bit rate                                 : 57 b/s
  56. Count of elements                        : 1656
  57. Stream size                              : 56.1 KiB (0%)
  58. Title                                    : English (SDH)
  59. Language                                 : English
  60. Default                                  : No
  61. Forced                                   : No

  62. Text #2
  63. ID                                       : 4
  64. Format                                   : UTF-8
  65. Codec ID                                 : S_TEXT/UTF8
  66. Codec ID/Info                            : UTF-8 Plain Text
  67. Duration                                 : 2 h 7 min
  68. Bit rate                                 : 53 b/s
  69. Count of elements                        : 1362
  70. Stream size                              : 50.2 KiB (0%)
  71. Title                                    : Spanish (Latin American)
  72. Language                                 : Spanish
  73. Default                                  : No
  74. Forced                                   : No

  75. Text #3
  76. ID                                       : 5
  77. Format                                   : UTF-8
  78. Codec ID                                 : S_TEXT/UTF8
  79. Codec ID/Info                            : UTF-8 Plain Text
  80. Duration                                 : 2 h 9 min
  81. Bit rate                                 : 39 b/s
  82. Count of elements                        : 1322
  83. Stream size                              : 37.4 KiB (0%)
  84. Title                                    : Dutch
  85. Language                                 : Dutch
  86. Default                                  : No
  87. Forced                                   : No
复制代码

星球大战前传1:鬼魂的威胁/星战前传之魅影危机 Star.Wars.Episode.I.The.Phantom.Menace.1999.HDR.2160p.WEB.H265-PETRiFiED 16.50GB-2.png 星球大战前传1:鬼魂的威胁/星战前传之魅影危机 Star.Wars.Episode.I.The.Phantom.Menace.1999.HDR.2160p.WEB.H265-PETRiFiED 16.50GB-3.png 星球大战前传1:鬼魂的威胁/星战前传之魅影危机 Star.Wars.Episode.I.The.Phantom.Menace.1999.HDR.2160p.WEB.H265-PETRiFiED 16.50GB-4.png






本帖隐藏的下载地址需要VIP会员才可阅读,您需要升级才可阅读,点击这里升级VIP
回复

使用道具 举报

级别:专业龙套 Lv.4

注册时间
2020-2-7
最后登录
2020-2-28
听众
1
收听
0
主题
0
蓝光币
60 枚
贡献
0 点
发表于 2020-2-10 00:39:56 | 显示全部楼层

楼主太厉害了!楼主,电影应该很好看我觉得中国高清电影网真是个好地方!
回复

使用道具 举报

级别:初级观众 Lv.1

注册时间
2020-2-14
最后登录
2020-2-16
听众
2
收听
0
主题
0
蓝光币
12 枚
贡献
0 点
QQ
发表于 2020-2-14 09:21:12 | 显示全部楼层
楼主太厉害了!楼主,电影应该很好看我觉得中国高清电影网真是个好地方
回复

使用道具 举报

级别:初级观众 Lv.1

注册时间
2020-2-13
最后登录
2020-2-14
听众
1
收听
0
主题
0
蓝光币
4 枚
贡献
0 点
QQ
发表于 2020-2-14 11:12:27 | 显示全部楼层
谢谢楼主分享
回复

使用道具 举报

懒得打字嘛,点击右侧快捷回复 【右侧内容,后台自定义】
您需要登录后才可以回帖 登录 | 立即注册

本版积分规则

Archiver|手机版|小黑屋| 中国高清网 |网站地图

GMT+8, 2020-2-28 23:14 , Processed in 0.181545 second(s), 39 queries .

Powered by HDchina X3.4

Copyright 2017-2019©HDchina.All right reserved

返回顶部 联系我们