查看: 1915|回复: 19

[10bit.HDR] 决战中途岛 Midway.2019.2160p.UHD.BluRay.X265.10bit.HDR.TrueHD.7.1.Atmos-AAAUHD 28.42GB

[复制链接]

 成长值: 7735

级别:资源管理组

注册时间
2017-10-20
最后登录
2020-10-23
听众
1
收听
0
主题
104417
蓝光币
207788 枚
贡献
21715 点
发表于 2020-2-7 23:41:40 | 显示全部楼层 |阅读模式
决战中途岛 Midway.2019.2160p.UHD.BluRay.X265.10bit.HDR.TrueHD.7.1.Atmos-AAAUHD 28.42GB-1.png

译  名 决战中途岛 / Battle of the Midway / 中途岛 / 中途岛战争 / 中途岛海战
片  名 Midway
年  代 2019
产  地 中国大陆 / 美国
类  别 剧情 / 历史 / 战争
语  言 英语
上映日期 2019-11-08(美国/中国大陆)
IMDb评分  6.8/10 from 22024 users
IMDb链接  https://www.imdb.com/title/tt6924650
豆瓣评分 7.7/10 from 105274 users
豆瓣链接 https://movie.douban.com/subject/26786669/
片  长 138分钟
导  演 罗兰·艾默里奇 Roland Emmerich
编  剧 韦斯·图克 Wes Tooke
主  演 艾德·斯克林 Ed Skrein
       帕特里克·威尔森 Patrick Wilson
       伍迪·哈里森 Woody Harrelson
       卢克·伊万斯 Luke Evans
       丹尼斯·奎德 Dennis Quaid
       曼迪·摩尔 Mandy Moore
       亚历山大·路德韦格 Alexander Ludwig
       艾伦·艾克哈特 Aaron Eckhart
       达伦·克里斯 Darren Criss
       尼克·乔纳斯 Nick Jonas
       卢克·克莱恩坦克 Luke Kleintank
       杰克·韦伯 Jake Weber
       基恩·约翰逊 Keean Johnson
       浅野忠信 Tadanobu Asano
       大卫·休莱特 David Hewlett
       马克·罗斯顿 Mark Rolston
       布雷南·布朗 Brennan Brown
       詹姆斯·卡佩内罗 James Carpinello
       马修·麦考尔 Matthew MacCaull
       格雷格·霍瓦尼西安 Greg Hovanessian
       杰克·曼利 Jake Manley
       杰弗里·布莱克 Geoffrey Blake
       瑞秋·佩雷尔·佛斯基特 Rachael Perrell Fosket
       卡梅伦·布罗德 Cameron Brodeur
       杰克博·布莱尔 Jacob Blair
       克里斯蒂·布鲁克 Christie Brooke
       国村隼 Jun Kunimura
       泰勒·艾略特·伯克 Tyler Elliot Burke
       丰川悦司 Etsushi Toyokawa
       艾梅伯·瓦尔斯 Amber Walls
       莫妮卡·比卡罗娃 Monika Bicarova
       托尼·克里斯托弗 Tony Christopher
       加雷特·佐藤 Garret Sato
       罗伯特·克鲁克斯 Robert Crooks
       埃里克·戴维斯 Eric Davis
       托马斯?瓦利埃 Thomas Vallieres
       约翰·洛巴托 John Lobato
       迪索·拉莫斯 Diezel Ramos
       Kenny Leu


标  签 二战 | 战争 | 美国 | 历史 | 海战 | 实在事务改编 | 日本 | 2019

简  介  

  电影报告的是第二次天下大战承平洋战争重要转折点——中途岛海战:经此一役,日本水兵遭到“降维冲击”,美日海上气力反转,从而改变了全部承平洋疆场的大势。影片经过参战兵士和飞翔员一个个新鲜的故事,率领观众慢慢进入1942年6月初发生在承平洋中途岛四周那场使人难以置信的战争……

  1. Video
  2. ID                                       : 1
  3. Format                                   : HEVC
  4. Format/Info                              : High Efficiency Video Coding
  5. Format profile                           : Main 10@L5.1@High
  6. HDR format                               : SMPTE ST 2086, HDR10 compatible
  7. Codec ID                                 : V_MPEGH/ISO/HEVC
  8. Duration                                 : 2 h 18 min
  9. Bit rate                                 : 25.2 Mb/s
  10. Width                                    : 3 840 pixels
  11. Height                                   : 1 608 pixels
  12. Display aspect ratio                     : 2.40:1
  13. Frame rate mode                          : Constant
  14. Frame rate                               : 23.976 (24000/1001) FPS
  15. Color space                              : YUV
  16. Chroma subsampling                       : 4:2:0 (Type 2)
  17. Bit depth                                : 10 bits
  18. Bits/(Pixel*Frame)                       : 0.170
  19. Stream size                              : 24.4 GiB (86%)
  20. Title                                    : Midway.2019.2160p.UHD.BluRay.x265-AAAUHD
  21. Writing library                          : x265 3.2+38-fdbd4e4a2aff:[Windows][GCC 9.2.1][64 bit] 10bit
  22. Encoding settings                        : cpuid=1111039 / frame-threads=5 / numa-pools=32 / wpp / no-pmode / no-pme / no-psnr / no-ssim / log-level=2 / input-csp=1 / input-res=3840x1608 / interlace=0 / total-frames=199127 / level-idc=51 / high-tier=1 / uhd-bd=0 / ref=4 / no-allow-non-conformance / repeat-headers / annexb / aud / hrd / info / hash=0 / no-temporal-layers / no-open-gop / min-keyint=1 / keyint=24 / gop-lookahead=0 / bframes=4 / b-adapt=2 / b-pyramid / bframe-bias=0 / rc-lookahead=25 / lookahead-slices=4 / scenecut=40 / hist-scenecut=0 / radl=0 / no-splice / no-intra-refresh / ctu=64 / min-cu-size=8 / rect / no-amp / max-tu-size=32 / tu-inter-depth=1 / tu-intra-depth=1 / limit-tu=0 / rdoq-level=2 / dynamic-rd=0.00 / no-ssim-rd / signhide / no-tskip / nr-intra=0 / nr-inter=0 / no-constrained-intra / no-strong-intra-smoothing / max-merge=3 / limit-refs=3 / limit-modes / me=3 / subme=3 / merange=57 / temporal-mvp / no-frame-dup / no-hme / weightp / no-weightb / no-analyze-src-pics / deblock=-3:-3 / no-sao / no-sao-non-deblock / rd=4 / selective-sao=0 / no-early-skip / rskip / no-fast-intra / no-tskip-fast / no-cu-lossless / no-b-intra / no-splitrd-skip / rdpenalty=0 / psy-rd=2.00 / psy-rdoq=1.00 / no-rd-refine / no-lossless / cbqpoffs=0 / crqpoffs=0 / rc=crf / crf=17.0 / qcomp=0.60 / qpstep=4 / stats-write=0 / stats-read=0 / vbv-maxrate=160000 / vbv-bufsize=160000 / vbv-init=0.9 / crf-max=0.0 / crf-min=0.0 / ipratio=1.40 / pbratio=1.30 / aq-mode=2 / aq-strength=1.00 / cutree / zone-count=0 / no-strict-cbr / qg-size=32 / no-rc-grain / qpmax=69 / qpmin=0 / no-const-vbv / sar=1 / overscan=0 / videoformat=5 / range=0 / colorprim=9 / transfer=16 / colormatrix=9 / chromaloc=1 / chromaloc-top=2 / chromaloc-bottom=2 / display-window=0 / master-display=G(13250,34500)B(7500,3000)R(34000,16000)WP(15635,16450)L(10000000,1) / cll=1000,476 / min-luma=0 / max-luma=1023 / log2-max-poc-lsb=8 / vui-timing-info / vui-hrd-info / slices=1 / no-opt-qp-pps / no-opt-ref-list-length-pps / no-multi-pass-opt-rps / scenecut-bias=0.05 / hist-threshold=0.01 / no-opt-cu-delta-qp / no-aq-motion / hdr10 / hdr10-opt / no-dhdr10-opt / no-idr-recovery-sei / analysis-reuse-level=0 / analysis-save-reuse-level=0 / analysis-load-reuse-level=0 / scale-factor=0 / refine-intra=0 / refine-inter=0 / refine-mv=1 / refine-ctu-distortion=0 / no-limit-sao / ctu-info=0 / no-lowpass-dct / refine-analysis-type=0 / copy-pic=1 / max-ausize-factor=1.0 / no-dynamic-refine / no-single-sei / no-hevc-aq / no-svt / no-field / qp-adaptation-range=1.00 / no-scenecut-aware-qpconformance-window-offsets / right=0 / bottom=0
  23. Default                                  : Yes
  24. Forced                                   : No
  25. Color range                              : Limited
  26. Color primaries                          : BT.2020
  27. Transfer characteristics                 : PQ
  28. Matrix coefficients                      : BT.2020 non-constant
  29. Mastering display color primaries        : Display P3
  30. Mastering display luminance              : min: 0.0001 cd/m2, max: 1000 cd/m2
  31. Maximum Content Light Level              : 1000 cd/m2
  32. Maximum Frame-Average Light Level        : 476 cd/m2

  33. Audio #1
  34. ID                                       : 2
  35. Format                                   : MLP FBA 16-ch
  36. Format/Info                              : Meridian Lossless Packing FBA with 16-channel presentation
  37. Commercial name                          : Dolby TrueHD with Dolby Atmos
  38. Codec ID                                 : A_TRUEHD
  39. Duration                                 : 2 h 18 min
  40. Bit rate mode                            : Variable
  41. Bit rate                                 : 3 190 kb/s
  42. Maximum bit rate                         : 5 460 kb/s
  43. Channel(s)                               : 8 channels
  44. Channel layout                           : L R C LFE Ls Rs Lb Rb
  45. Sampling rate                            : 48.0 kHz
  46. Frame rate                               : 1 200.000 FPS (40 SPF)
  47. Compression mode                         : Lossless
  48. Stream size                              : 3.08 GiB (11%)
  49. Title                                    : English Dolby TrueHD with Dolby Atmos (TrueHD)
  50. Language                                 : English
  51. Default                                  : Yes
  52. Forced                                   : No
  53. Number of dynamic objects                : 11
  54. Bed channel count                        : 1 channel
  55. Bed channel configuration                : LFE

  56. Audio #2
  57. ID                                       : 3
  58. Format                                   : AC-3
  59. Format/Info                              : Audio Coding 3
  60. Commercial name                          : Dolby Digital
  61. Codec ID                                 : A_AC3
  62. Duration                                 : 2 h 18 min
  63. Bit rate mode                            : Constant
  64. Bit rate                                 : 640 kb/s
  65. Channel(s)                               : 6 channels
  66. Channel layout                           : L R C LFE Ls Rs
  67. Sampling rate                            : 48.0 kHz
  68. Frame rate                               : 31.250 FPS (1536 SPF)
  69. Bit depth                                : 16 bits
  70. Compression mode                         : Lossy
  71. Stream size                              : 634 MiB (2%)
  72. Title                                    : English Dolby Digital (AC3)
  73. Language                                 : English
  74. Service kind                             : Complete Main
  75. Default                                  : No
  76. Forced                                   : No

  77. Text #1
  78. ID                                       : 4
  79. Format                                   : UTF-8
  80. Codec ID                                 : S_TEXT/UTF8
  81. Codec ID/Info                            : UTF-8 Plain Text
  82. Duration                                 : 2 h 8 min
  83. Bit rate                                 : 42 b/s
  84. Count of elements                        : 1225
  85. Stream size                              : 40.1 KiB (0%)
  86. Title                                    : English
  87. Language                                 : English
  88. Default                                  : No
  89. Forced                                   : No

  90. Text #2
  91. ID                                       : 5
  92. Format                                   : UTF-8
  93. Codec ID                                 : S_TEXT/UTF8
  94. Codec ID/Info                            : UTF-8 Plain Text
  95. Duration                                 : 2 h 8 min
  96. Bit rate                                 : 48 b/s
  97. Count of elements                        : 1444
  98. Stream size                              : 45.4 KiB (0%)
  99. Title                                    : English SDH
  100. Language                                 : English
  101. Default                                  : No
  102. Forced                                   : No

  103. Text #3
  104. ID                                       : 6
  105. Format                                   : PGS
  106. Codec ID                                 : S_HDMV/PGS
  107. Codec ID/Info                            : Picture based subtitle format used on BDs/HD-DVDs
  108. Duration                                 : 2 h 8 min
  109. Bit rate                                 : 30.1 kb/s
  110. Count of elements                        : 2462
  111. Stream size                              : 27.6 MiB (0%)
  112. Title                                    : English PGS
  113. Language                                 : English
  114. Default                                  : No
  115. Forced                                   : No

  116. Text #4
  117. ID                                       : 7
  118. Format                                   : PGS
  119. Codec ID                                 : S_HDMV/PGS
  120. Codec ID/Info                            : Picture based subtitle format used on BDs/HD-DVDs
  121. Duration                                 : 2 h 8 min
  122. Bit rate                                 : 34.5 kb/s
  123. Count of elements                        : 2902
  124. Stream size                              : 31.6 MiB (0%)
  125. Title                                    : English SDH PGS
  126. Language                                 : English
  127. Default                                  : No
  128. Forced                                   : No

  129. Menu
  130. 00:00:00.000                             : :Chapter 01
  131. 00:09:36.659                             : :Chapter 02
  132. 00:17:37.682                             : :Chapter 03
  133. 00:25:13.512                             : :Chapter 04
  134. 00:30:33.623                             : :Chapter 05
  135. 00:39:34.289                             : :Chapter 06
  136. 00:46:13.020                             : :Chapter 07
  137. 00:53:48.851                             : :Chapter 08
  138. 01:00:32.963                             : :Chapter 09
  139. 01:09:01.971                             : :Chapter 10
  140. 01:16:11.025                             : :Chapter 11
  141. 01:24:48.041                             : :Chapter 12
  142. 01:31:49.546                             : :Chapter 13
  143. 01:42:08.873                             : :Chapter 14
  144. 01:51:17.880                             : :Chapter 15
  145. 02:02:21.084                             : :Chapter 16
复制代码
212946mfq5iktfi1073qi7.png 212948lqhd5pcox6dq6hmq.png 212947vceoeh4b9338o442.png



本帖隐藏的下载地址需要VIP会员才可阅读,您需要升级才可阅读,点击这里升级VIP

回复

使用道具 举报

级别:领衔主演 Lv.6

注册时间
2018-2-26
最后登录
2020-10-23
听众
19
收听
0
主题
0
蓝光币
285 枚
贡献
0 点
发表于 2020-2-8 09:14:27 | 显示全部楼层
楼主发贴辛苦了,谢谢楼主分享!我觉得中国高清电影网是注册对了!
回复

使用道具 举报

级别:专业龙套 Lv.4

注册时间
2019-12-11
最后登录
2020-10-23
听众
4
收听
0
主题
0
蓝光币
627 枚
贡献
0 点
发表于 2020-2-8 10:10:36 | 显示全部楼层

楼主太厉害了!楼主,电影应该很好看我觉得中国高清电影网真是个好地方!
回复

使用道具 举报

级别:群众演员 Lv.3

注册时间
2020-2-8
最后登录
2020-10-25
听众
4
收听
0
主题
0
蓝光币
335 枚
贡献
0 点
发表于 2020-2-8 10:10:57 | 显示全部楼层

这个帖子不回对不起自己!我想我是一天也不能离开中国高清电影网
回复

使用道具 举报

 成长值: 4390

级别:尊贵的会员

注册时间
2019-1-16
最后登录
2020-10-25
听众
17
收听
0
主题
0
蓝光币
1580 枚
贡献
0 点
QQ
发表于 2020-2-8 10:48:31 | 显示全部楼层
廣東龍門馬到成功!多謝版主的無私發佈分享%
回复

使用道具 举报

 成长值: 5440

级别:尊贵的会员

注册时间
2019-11-23
最后登录
2020-10-25
听众
4
收听
0
主题
0
蓝光币
42 枚
贡献
0 点
发表于 2020-2-8 12:57:03 | 显示全部楼层
这么多版本,不知哪个版本最好?
回复

使用道具 举报

级别:荣升主角 Lv.5

注册时间
2019-6-7
最后登录
2020-10-25
听众
15
收听
0
主题
0
蓝光币
959 枚
贡献
0 点
QQ
发表于 2020-2-8 14:36:21 | 显示全部楼层

楼主太厉害了!楼主,电影应该很好看我觉得中国高清电影网真是个好地方!
回复

使用道具 举报

已抛锚 成长值: 300

级别:群众演员 Lv.3

注册时间
2019-5-21
最后登录
2020-3-9
听众
13
收听
0
主题
0
蓝光币
174 枚
贡献
0 点
发表于 2020-2-8 15:51:27 | 显示全部楼层
我想我是一天也不能离开中国高清电影网。
回复

使用道具 举报

 成长值: 3175

级别:尊贵的会员

注册时间
2020-2-5
最后登录
2020-10-15
听众
4
收听
0
主题
0
蓝光币
91 枚
贡献
0 点
发表于 2020-2-10 10:38:55 | 显示全部楼层

我看不错噢 谢谢楼主!中国高清电影网越来越好!
回复

使用道具 举报

级别:初级观众 Lv.1

注册时间
2020-2-10
最后登录
2020-3-8
听众
2
收听
0
主题
0
蓝光币
17 枚
贡献
0 点
QQ
发表于 2020-2-10 12:07:55 | 显示全部楼层
这个好看哦!感谢楼主分享!
回复

使用道具 举报

懒得打字嘛,点击右侧快捷回复 【右侧内容,后台自定义】
您需要登录后才可以回帖 登录 | 立即注册

本版积分规则

Archiver|手机版|小黑屋| 中国高清网 ( ICP备17007870号-2 ) |网站地图 

GMT+8, 2020-10-25 22:29 , Processed in 0.209979 second(s), 41 queries .

Powered by HDchina X3.4

Copyright 2017-2019©HDchina.All right reserved

返回顶部 联系我们