查看: 189|回复: 1

[剧情片] 深夜食堂2/深夜食堂电影版2 Midnight.Diner.2.2016.JAPANESE.1080p.BluRay.x264.DTS-FGT 9.81GB

[复制链接]

 成长值: 4220

级别:资源管理组

注册时间
2017-10-20
最后登录
2020-2-28
听众
1
收听
0
主题
92973
蓝光币
106013 枚
贡献
17335 点
发表于 2020-1-20 23:27:59 | 显示全部楼层 |阅读模式
深夜食堂2/深夜食堂电影版2 Midnight.Diner.2.2016.JAPANESE.1080p.BluRay.x264.DTS-FGT 9.81GB-1.png

译  名 深夜食堂2 / 深夜食堂电影版2
片  名 続?深夜食堂
年  代 2016
产  地 日本
类  别 剧情
语  言 日语
上映日期 2016-11-05(日本) / 2017-07-18(中国大陆)
IMDb评分  7.3/10 from 559 users
IMDb链接  https://www.imdb.com/title/tt5741902
豆瓣评分 8.1/10 from 41143 users
豆瓣链接 https://movie.douban.com/subject/26798437/
片  长 108分钟
导  演 松冈锭司 Joji Matsuoka
编  剧 真边克彦 Katsuhiko Manabe / 小嶋健作 Kensaku Kojima / 松冈锭司 Joji Matsuoka / 安倍夜郎(原著)
主  演 小林薰 Kaoru Kobayashi
       河井青叶 Aoba Kawai
       佐藤浩市 K?ichi Sat?
       池松壮亮 Sosuke Ikematsu
       木村绿子 Midoriko Kimura
       小岛圣 Hijiri Kojima
       渡边美佐子 Misako Watanabe
       井川比佐志 Hisashi Igawa
       多部未华子 Mikako Tabe
       余贵美子 Kimiko Yo
       小田切让 J? Odagiri
       不破万作 Mansaku Fuwa
       绫田俊树 Toshiki Ayata
       松重丰 Yutaka Matsushige
       光石研 Ken Mitsuishi
       安藤玉惠 Tamae And?
       须藤理彩 Risa Sud?
       小林麻子 Asako Kobayashi
       吉本菜穂子 Yoshimoto Noriko
       中山佑一朗 Yuichiro Nakayama
       山中崇 Takashi Yamanaka
       宇野祥平 Sh?hei Uno
       金子清文 Kiyobumi Kaneko
       平田薫 Kaoru Hirata
       筱原友希子 Yukiko Shinohara
       片冈礼子 Reiko Kataoka
       谷村美月 Mitsuki Tanimura


标  签 日本 | 美食 | 温情 | 治愈 | 治愈系 | 人生 | 剧情 | 2016

简  介  

  小小的深夜食堂,迎来送往这个喧哗都会内奔走疲惫的人们。他们漫无目标,大概丢失偏向,却常常不经意间在这个蕞尔角落找到前行的希望。每当在工作中碰到烦苦衷,赤冢范子(河井青叶 饰)便穿着丧服在大街上游荡。偶然机遇,她在葬礼上结识了一位男人(佐藤浩市 饰),干涸的心田便为恋爱所滋润。经营荞麦面熟意的高木圣子(木村绿 饰)与儿子清太(池松壮亮 饰)相依为命,清太和年龄擅长自己的木村纱织(小岛圣 饰)相恋,而一向与圣子好姐妹相当的圣子却全不知情。年逾古稀的老太太夕起子(渡边美佐子 饰)被欺骗电话骗到了东京,食堂的热情人们担忧她的钱被人骗走,老奶奶则漫不尽心。这趟前来,她恍若有个未了的心愿。
  本片按照同名漫画改编,为同名深夜剧的第二部电影版。

获奖情况  

  第4届豆瓣电影年度榜单(2017)
  评分最高的日本电影(提名)
  7月最受关注电影(提名)
  1. Video
  2. ID                                       : 1
  3. Format                                   : AVC
  4. Format/Info                              : Advanced Video Codec
  5. Format profile                           : High@L4
  6. Format settings                          : CABAC / 4 Ref Frames
  7. Format settings, CABAC                   : Yes
  8. Format settings, Reference frames        : 4 frames
  9. Codec ID                                 : V_MPEG4/ISO/AVC
  10. Duration                                 : 1 h 47 min
  11. Bit rate                                 : 11.5 Mb/s
  12. Width                                    : 1 920 pixels
  13. Height                                   : 1 036 pixels
  14. Display aspect ratio                     : 1.85:1
  15. Frame rate mode                          : Constant
  16. Frame rate                               : 23.976 (24000/1001) FPS
  17. Color space                              : YUV
  18. Chroma subsampling                       : 4:2:0
  19. Bit depth                                : 8 bits
  20. Scan type                                : Progressive
  21. Bits/(Pixel*Frame)                       : 0.241
  22. Stream size                              : 8.67 GiB (88%)
  23. Title                                    : Midnight.Diner.2.2016.JAPANESE.1080p.BluRay.x264.DTS-FGT
  24. Writing library                          : x264 core 148 r2795M aaa9aa8
  25. Encoding settings                        : cabac=1 / ref=4 / deblock=1:-2:-2 / analyse=0x3:0x113 / me=umh / subme=9 / psy=1 / psy_rd=1.00:0.15 / mixed_ref=1 / me_range=16 / chroma_me=1 / trellis=2 / 8x8dct=1 / cqm=0 / deadzone=21,11 / fast_pskip=1 / chroma_qp_offset=-3 / threads=24 / lookahead_threads=3 / sliced_threads=0 / nr=0 / decimate=1 / interlaced=0 / bluray_compat=0 / constrained_intra=0 / bframes=3 / b_pyramid=2 / b_adapt=1 / b_bias=0 / direct=3 / weightb=1 / open_gop=0 / weightp=2 / keyint=250 / keyint_min=25 / scenecut=40 / intra_refresh=0 / rc_lookahead=50 / rc=2pass / mbtree=1 / bitrate=11500 / ratetol=1.0 / qcomp=0.60 / qpmin=0 / qpmax=69 / qpstep=4 / cplxblur=20.0 / qblur=0.5 / vbv_maxrate=31250 / vbv_bufsize=31250 / nal_hrd=none / filler=0 / ip_ratio=1.40 / aq=1:1.00
  26. Language                                 : Japanese
  27. Default                                  : Yes
  28. Forced                                   : No

  29. Audio
  30. ID                                       : 2
  31. Format                                   : DTS
  32. Format/Info                              : Digital Theater Systems
  33. Codec ID                                 : A_DTS
  34. Duration                                 : 1 h 47 min
  35. Bit rate mode                            : Constant
  36. Bit rate                                 : 1 509 kb/s
  37. Channel(s)                               : 6 channels
  38. Channel layout                           : C L R Ls Rs LFE
  39. Sampling rate                            : 48.0 kHz
  40. Frame rate                               : 93.750 FPS (512 SPF)
  41. Bit depth                                : 24 bits
  42. Compression mode                         : Lossy
  43. Stream size                              : 1.14 GiB (12%)
  44. Title                                    : Midnight.Diner.2.2016.JAPANESE.1080p.BluRay.x264.DTS-FGT
  45. Language                                 : Japanese
  46. Default                                  : Yes
  47. Forced                                   : No

  48. Text
  49. ID                                       : 3
  50. Format                                   : UTF-8
  51. Codec ID                                 : S_TEXT/UTF8
  52. Codec ID/Info                            : UTF-8 Plain Text
  53. Duration                                 : 1 h 46 min
  54. Bit rate                                 : 39 b/s
  55. Count of elements                        : 1150
  56. Stream size                              : 31.2 KiB (0%)
  57. Language                                 : English
  58. Default                                  : Yes
  59. Forced                                   : No

  60. Menu
  61. 00:00:00.000                             : en:Chapter 1
  62. 00:02:44.581                             : en:Chapter 2
  63. 00:26:12.696                             : en:Chapter 3
  64. 00:57:44.043                             : en:Chapter 4
  65. 01:40:49.793                             : en:Chapter 5
复制代码

深夜食堂2/深夜食堂电影版2 Midnight.Diner.2.2016.JAPANESE.1080p.BluRay.x264.DTS-FGT 9.81GB-2.png 深夜食堂2/深夜食堂电影版2 Midnight.Diner.2.2016.JAPANESE.1080p.BluRay.x264.DTS-FGT 9.81GB-3.png 深夜食堂2/深夜食堂电影版2 Midnight.Diner.2.2016.JAPANESE.1080p.BluRay.x264.DTS-FGT 9.81GB-4.png






回复

使用道具 举报

级别:群众演员 Lv.3

注册时间
2020-2-4
最后登录
2020-2-28
听众
1
收听
0
主题
0
蓝光币
22 枚
贡献
0 点
发表于 2020-2-14 17:40:45 | 显示全部楼层
楼主发贴辛苦了,谢谢楼主分享!我觉得中国高清电影网是注册对了!
回复

使用道具 举报

懒得打字嘛,点击右侧快捷回复 【右侧内容,后台自定义】
您需要登录后才可以回帖 登录 | 立即注册

本版积分规则

Archiver|手机版|小黑屋| 中国高清网 |网站地图

GMT+8, 2020-2-29 00:00 , Processed in 0.167488 second(s), 37 queries .

Powered by HDchina X3.4

Copyright 2017-2019©HDchina.All right reserved

返回顶部 联系我们