查看: 249|回复: 8

[剧情片] 武士马拉松 Samurai.Marathon.2019.JAPANESE.1080p.BluRay.x264.DTS-iKiW 8.50GB

[复制链接]

 成长值: 4210

级别:资源管理组

注册时间
2017-10-20
最后登录
2020-2-28
听众
1
收听
0
主题
92951
蓝光币
105921 枚
贡献
17313 点
发表于 2020-1-20 15:16:30 | 显示全部楼层 |阅读模式
军人马拉松 Samurai.Marathon.2019.JAPANESE.1080p.BluRay.x264.DTS-iKiW 8.50GB-1.png

译  名 军人马拉松 / Samurai marason / 幕末马拉松
片  名 サムライマラソン
年  代 2019
产  地 日本
类  别 剧情 / 行动 / 历史
语  言 日语
上映日期 2019-02-22(日本)
IMDb评分  6.3/10 from 207 users
IMDb链接  https://www.imdb.com/title/tt9311062
豆瓣评分 6.2/10 from 1365 users
豆瓣链接 https://movie.douban.com/subject/26431439/
片  长 105分钟
导  演 伯纳德·罗斯 Bernard Rose
编  剧 齐藤浩史 Hiroshi Sait? / 伯纳德·罗斯 Bernard Rose / 山岸菊美 Kikumi Yamagishi / 土桥章宏 Akihiro Dobashi
主  演 佐藤健 Takeru Sat?
       小松菜奈 Nana Komatsu
       森山未来 Mirai Moriyama
       染谷将太 Sh?ta Sometani
       青木高尚 Munetaka Aoki
       竹中直人 Naoto Takenaka
       丰川悦司 Etsushi Toyokawa
       长谷川博己 Hiroki Hasegawa
       门胁麦 Mugi Kadowaki
       中川弘愿 Taishi Nakagawa
       小关裕太 Yuta Koseki
       阿部纯子 Abe Junko
       奈绪 Nao.
       福崎那由他 Nayuta Fukuzaki
       深水元基 Motoki Fukami
       筒井真理子 Mariko Tsutsui


标  签 日本 | 日本电影 | 佐藤健 | 2019 | 小松菜奈 | 剧情 | 染谷将太 | 历史

简  介  

  影片改编自土桥章宏的小说《幕末马拉松军人》,以江户时代为布景,报告为抵抗来自本国的威胁、锻炼藩士身心,安中藩藩主命令举行名为“安政远足”的长跑比赛,也是日本最早的长跑比赛。但这场活动却阴错阳差地被幕府视为叛乱,因而遣刺客前往没有藩士驻守的安中城,诡计发出国土…。
  由杰瑞米·托马斯(《末代天子》)、中泽敏明(《入殓师》)配合企划·建造,伯纳德·罗斯(《安娜·卡列尼娜》)执导,菲利普·格拉斯(《楚门的天下》)担任配乐,和田惠美(《乱》《豪杰》)担任打扮设想。
  1. Video
  2. ID                                       : 1
  3. Format                                   : AVC
  4. Format/Info                              : Advanced Video Codec
  5. Format profile                           : High@L4
  6. Format settings                          : CABAC / 5 Ref Frames
  7. Format settings, CABAC                   : Yes
  8. Format settings, Reference frames        : 5 frames
  9. Codec ID                                 : V_MPEG4/ISO/AVC
  10. Duration                                 : 1 h 44 min
  11. Bit rate                                 : 10.2 Mb/s
  12. Width                                    : 1 920 pixels
  13. Height                                   : 800 pixels
  14. Display aspect ratio                     : 2.40:1
  15. Frame rate mode                          : Constant
  16. Frame rate                               : 23.976 (24000/1001) FPS
  17. Color space                              : YUV
  18. Chroma subsampling                       : 4:2:0
  19. Bit depth                                : 8 bits
  20. Scan type                                : Progressive
  21. Bits/(Pixel*Frame)                       : 0.276
  22. Stream size                              : 7.40 GiB (87%)
  23. Writing library                          : x264 core 129 r2245+704+36 8e61944 tMod+MixAQ [High@L4:2:0 X86_64]
  24. Encoding settings                        : cabac=1 / ref=5 / deblock=1:-3:-3 / analyse=0x3:0x133 / me=umh / subme=11 / psy=1 / fade_compensate=0.00 / psy_rd=1.05:0.10 / mixed_ref=1 / me_range=64 / chroma_me=1 / trellis=2 / 8x8dct=1 / cqm=0 / deadzone=21,11 / fast_pskip=0 / chroma_qp_offset=-3 / threads=18 / lookahead_threads=3 / sliced_threads=0 / nr=0 / decimate=0 / interlaced=0 / bluray_compat=0 / constrained_intra=0 / fgo=0 / bframes=10 / b_pyramid=2 / b_adapt=2 / b_bias=0 / direct=3 / weightb=1 / open_gop=0 / weightp=2 / keyint=250 / keyint_min=23 / scenecut=40 / intra_refresh=0 / rc=2pass / mbtree=0 / bitrate=10154 / ratetol=1.0 / qcomp=0.70 / qpmin=0 / qpmax=69 / qpstep=4 / cplxblur=20.0 / qblur=0.5 / ip_ratio=1.40 / pb_ratio=1.30 / aq=1 / aq-strength=0.90 / aq-sensitivity=10.00 / aq-ifactor=1.00 / aq-pfactor=1.00 / aq-bfactor=1.00 / aq2=0
  25. Language                                 : Japanese
  26. Default                                  : Yes
  27. Forced                                   : No

  28. Audio
  29. ID                                       : 2
  30. Format                                   : DTS
  31. Format/Info                              : Digital Theater Systems
  32. Codec ID                                 : A_DTS
  33. Duration                                 : 1 h 44 min
  34. Bit rate mode                            : Constant
  35. Bit rate                                 : 1 509 kb/s
  36. Channel(s)                               : 6 channels
  37. Channel layout                           : C L R Ls Rs LFE
  38. Sampling rate                            : 48.0 kHz
  39. Frame rate                               : 93.750 FPS (512 SPF)
  40. Bit depth                                : 24 bits
  41. Compression mode                         : Lossy
  42. Stream size                              : 1.10 GiB (13%)
  43. Language                                 : Japanese
  44. Default                                  : Yes
  45. Forced                                   : No

  46. Text #1
  47. ID                                       : 3
  48. Format                                   : UTF-8
  49. Codec ID                                 : S_TEXT/UTF8
  50. Codec ID/Info                            : UTF-8 Plain Text
  51. Duration                                 : 1 h 41 min
  52. Bit rate                                 : 23 b/s
  53. Count of elements                        : 799
  54. Stream size                              : 17.6 KiB (0%)
  55. Language                                 : English
  56. Default                                  : Yes
  57. Forced                                   : No

  58. Text #2
  59. ID                                       : 4
  60. Format                                   : UTF-8
  61. Codec ID                                 : S_TEXT/UTF8
  62. Codec ID/Info                            : UTF-8 Plain Text
  63. Duration                                 : 1 h 41 min
  64. Bit rate                                 : 26 b/s
  65. Count of elements                        : 917
  66. Stream size                              : 20.0 KiB (0%)
  67. Title                                    : Simplified
  68. Language                                 : Chinese
  69. Default                                  : No
  70. Forced                                   : No

  71. Text #3
  72. ID                                       : 5
  73. Format                                   : UTF-8
  74. Codec ID                                 : S_TEXT/UTF8
  75. Codec ID/Info                            : UTF-8 Plain Text
  76. Duration                                 : 1 h 41 min
  77. Bit rate                                 : 26 b/s
  78. Count of elements                        : 917
  79. Stream size                              : 20.0 KiB (0%)
  80. Title                                    : Traditional
  81. Language                                 : Chinese
  82. Default                                  : No
  83. Forced                                   : No

  84. Menu
  85. 00:00:00.000                             : en:第 01 章
  86. 00:09:54.260                             : en:第 02 章
  87. 00:18:16.553                             : en:第 03 章
  88. 00:25:02.334                             : en:第 04 章
  89. 00:43:32.985                             : en:第 05 章
  90. 00:48:26.987                             : en:第 06 章
  91. 01:04:46.007                             : en:第 07 章
  92. 01:11:25.030                             : en:第 08 章
  93. 01:23:53.194                             : en:第 09 章
  94. 01:28:14.497                             : en:第 10 章
  95. 01:35:12.998                             : en:第 11 章
  96. 01:41:08.062                             : en:第 12 章
复制代码

军人马拉松 Samurai.Marathon.2019.JAPANESE.1080p.BluRay.x264.DTS-iKiW 8.50GB-2.png 军人马拉松 Samurai.Marathon.2019.JAPANESE.1080p.BluRay.x264.DTS-iKiW 8.50GB-3.png 军人马拉松 Samurai.Marathon.2019.JAPANESE.1080p.BluRay.x264.DTS-iKiW 8.50GB-4.png






回复

使用道具 举报

级别:专业龙套 Lv.4

注册时间
2019-12-9
最后登录
2020-2-28
听众
2
收听
0
主题
0
蓝光币
165 枚
贡献
0 点
QQ
发表于 2020-1-20 16:32:55 | 显示全部楼层
楼主发贴辛苦了,谢谢楼主分享!我觉得中国高清电影网是注册对了!
回复

使用道具 举报

级别:群众演员 Lv.3

注册时间
2019-1-30
最后登录
2020-2-28
听众
9
收听
0
主题
0
蓝光币
1 枚
贡献
0 点
QQ
发表于 2020-1-20 17:47:06 | 显示全部楼层
楼主发贴辛苦了,谢谢楼主分享!我觉得中国高清电影网是注册对了!
回复

使用道具 举报

级别:普通观众 Lv.2

注册时间
2020-1-20
最后登录
2020-2-28
听众
1
收听
0
主题
0
蓝光币
14 枚
贡献
0 点
发表于 2020-1-20 20:01:17 | 显示全部楼层

既然你诚信诚意的推荐了,那我就勉为其难的看看吧!中国高清电影网不走平凡路。
回复

使用道具 举报

级别:荣升主角 Lv.5

注册时间
2019-10-27
最后登录
2020-2-27
听众
1
收听
0
主题
0
蓝光币
260 枚
贡献
0 点
发表于 2020-1-20 22:40:13 | 显示全部楼层
楼主发贴辛苦了,谢谢楼主分享!我觉得中国高清电影网是注册对了!
回复

使用道具 举报

级别:专业龙套 Lv.4

注册时间
2019-11-29
最后登录
2020-2-28
听众
1
收听
0
主题
1
蓝光币
237 枚
贡献
1 点
发表于 2020-1-21 08:30:00 | 显示全部楼层
thanks 佐藤健
回复

使用道具 举报

级别:领衔主演 Lv.6

注册时间
2018-2-26
最后登录
2020-2-28
听众
16
收听
0
主题
0
蓝光币
240 枚
贡献
0 点
发表于 2020-1-21 09:03:50 | 显示全部楼层

我看不错噢 谢谢楼主!中国高清电影网越来越好!
回复

使用道具 举报

级别:群众演员 Lv.3

注册时间
2019-3-28
最后登录
2020-2-28
听众
10
收听
0
主题
0
蓝光币
24 枚
贡献
0 点
QQ
发表于 2020-1-22 12:13:41 | 显示全部楼层

楼主太厉害了!楼主,电影应该很好看我觉得中国高清电影网真是个好地方!
回复

使用道具 举报

级别:群众演员 Lv.3

注册时间
2020-2-4
最后登录
2020-2-28
听众
1
收听
0
主题
0
蓝光币
22 枚
贡献
0 点
发表于 2020-2-14 17:39:45 | 显示全部楼层

楼主太厉害了!楼主,电影应该很好看我觉得中国高清电影网真是个好地方!
回复

使用道具 举报

懒得打字嘛,点击右侧快捷回复 【右侧内容,后台自定义】
您需要登录后才可以回帖 登录 | 立即注册

本版积分规则

Archiver|手机版|小黑屋| 中国高清网 |网站地图

GMT+8, 2020-2-28 22:04 , Processed in 0.157608 second(s), 38 queries .

Powered by HDchina X3.4

Copyright 2017-2019©HDchina.All right reserved

返回顶部 联系我们