查看: 209|回复: 3

[动作片] 攻击链 Kill.Chain.2019.720p.Bluray.x264-FilmHD 4.37GB

[复制链接]

 成长值: 6410

级别:资源管理组

注册时间
2017-10-20
最后登录
2020-8-7
听众
1
收听
0
主题
100960
蓝光币
179128 枚
贡献
21715 点
发表于 2020-1-14 17:21:14 | 显示全部楼层 |阅读模式
进犯链 Kill.Chain.2019.720p.Bluray.x264-FilmHD 4.37GB-1.png
# i5 Y  a$ q) J, T
& F) _0 q8 q8 B- _/ p4 U% M译  名 进犯链
6 x( c0 {2 e! ?% O, R4 A片  名 Kill Chain
7 \. Y% h/ A7 N) y- W年  代 2019! W: O. w) ^3 f9 M* O0 f
产  地 美国* k8 [. `# X0 J
类  别 行动 / 惊悚
) `& t2 A4 S( {- B* K+ Q语  言 英语
7 }) ]/ u7 ?( w- i, ~上映日期 2019-10-18(美国)
* {) {; n) f. j& p$ [IMDb评分  5.1/10 from 1553 users
2 q7 Z$ e* b7 b5 n; u8 TIMDb链接  https://www.imdb.com/title/tt8535180
8 I+ b8 D+ C! d! Y' v豆瓣评分 5.8/10 from 536 users4 e, j6 r: v3 s* t' x) }" P
豆瓣链接 https://movie.douban.com/subject/30218533/
) O4 Y+ K: [' W( \: _片  长 91分钟' h; k( E) K- S
导  演 肯·桑泽尔 Ken Sanzel" X) f1 K* r+ @' B5 C3 O' `+ y8 ^
编  剧 肯·桑泽尔 Ken Sanzel
1 u% n( A  U" ^5 a8 W! I主  演 尼古拉斯·凯奇 Nicolas Cage7 R7 Y/ m( t8 x# X7 l6 r' U5 O
       恩里克·克兰东尼 Enrico Colantoni
5 W. E+ S: g/ w! O, Q; p+ w       瑞恩·柯万腾 Ryan Kwanten, I  y& _* {  ~# Q. c6 I+ i# m% h, d
       阿里米·巴尔拉德 Alimi Ballard( u, G( D' D# v% U2 G7 f
       安吉·塞佩达 Angie Cepeda
3 ^' n  a5 Q- H3 j& ]       乔恩·马克 Jon Mack
1 _+ D. @& u9 ^4 H* x& x* Z& Y       埃迪·马丁内斯 Eddie Martinez
! h% F5 k: O4 J9 u- m* }7 u- ?       卢纳·巴克斯特 Luna Baxter* V6 L9 h/ f( [0 J. X, v, n
       Anabelle Acosta5 t2 b5 {0 \" X$ s5 D4 c# d" O
       Pedro Calvo
4 |; u/ x. d: ]3 }) L; h3 @       Sara Elizabeth Avila
  J6 U  f% N- U/ I: M9 ?- q% C       Hector Alexander Gomez4 r0 m' k, J/ Q/ |( \1 r
       Juan Andres Angulo
% o/ P& r$ y+ v/ f       Yusuf Tangarife
: e" U+ H- `. O, n# t' ~+ |' s       Jhon Bedoya
) }: t" a* c- w& J' ~2 _+ }  M( u6 j' G- h2 }3 C6 S, m

) d' L0 J6 ]: P2 O8 z标  签 尼古拉斯凯奇 | 犯罪 | 行动 | 美国 | 暴力 | 2019 | 美国电影 | 尼古拉斯·凯奇! H% h: S1 m7 J, u

3 L* D6 U3 }) q7 ^- U: q简  介  
* A3 T. a, W9 u) k
( [% C% R  G2 E1 O  尼古拉斯·凯奇或将出演全新影片[进犯链](Kill Chain,暂译),该片由肯·桑泽尔([替人杀手])自编自导。故事报告三个陌生人,他们相互将堕入史无前例的抵触中。该片在戛纳电影节上被描述为最棒的黑色侦察影片。千禧年影业负责建造。3 T1 J9 j9 b. B) S3 Z
  1. Video
    . c0 Y4 S7 d; k% k! `' t$ C2 o
  2. ID                                       : 1
    4 ~( ?7 C+ O' G7 z
  3. Format                                   : AVC
    6 a/ D# E% ]% F
  4. Format/Info                              : Advanced Video Codec
    2 z5 r/ f. w( O9 `2 ^; y
  5. Format profile                           : High@L4) x. d3 k& f* \" `  Y! n( P
  6. Format settings                          : CABAC / 5 Ref Frames
    - h* u' s" h8 V# r; Q
  7. Format settings, CABAC                   : Yes
    ; A7 `" B. m1 p* U3 b( e% W- e# {6 B
  8. Format settings, Reference frames        : 5 frames
    : \. F4 f' }. R6 E2 e: ]/ }8 w2 J
  9. Codec ID                                 : V_MPEG4/ISO/AVC+ [! d6 l) f& f/ A9 ]
  10. Duration                                 : 1 h 31 min/ P, e1 `; G5 }% a' s: b7 x
  11. Bit rate                                 : 5 343 kb/s
    + {$ H- P6 U  Q0 r5 S( i
  12. Width                                    : 1 280 pixels
    , U, S$ |9 y' Y2 R5 f, K) c5 X
  13. Height                                   : 688 pixels# q9 B! j4 }' J+ e; g
  14. Display aspect ratio                     : 1.85:1
    " T  B3 v1 I: d7 \6 s' |
  15. Frame rate mode                          : Constant. r+ }3 }+ V5 d: k. b2 U* h
  16. Frame rate                               : 23.976 (24000/1001) FPS
    3 S" V4 s! W8 m8 p) W+ ?
  17. Color space                              : YUV& X% {, d' ~7 H! i1 W, U
  18. Chroma subsampling                       : 4:2:0+ y' b$ O. N# C2 _2 d4 h
  19. Bit depth                                : 8 bits6 j. F7 X+ \: K6 V9 P3 |
  20. Scan type                                : Progressive/ R) A+ E6 T% i( ^+ M5 M
  21. Bits/(Pixel*Frame)                       : 0.2530 c/ L* q) K  K! U& A
  22. Stream size                              : 3.32 GiB (76%)
    & y" I$ Q/ p" e/ r
  23. Writing library                          : x264 core 159 r2991 1771b55/ T8 L- a) T1 A+ n+ S- s
  24. Encoding settings                        : cabac=1 / ref=5 / deblock=1:-3:-3 / analyse=0x3:0x113 / me=umh / subme=8 / psy=1 / psy_rd=1.00:0.00 / mixed_ref=1 / me_range=24 / chroma_me=1 / trellis=2 / 8x8dct=1 / cqm=0 / deadzone=21,11 / fast_pskip=1 / chroma_qp_offset=-2 / threads=18 / lookahead_threads=3 / sliced_threads=0 / nr=0 / decimate=1 / interlaced=0 / bluray_compat=0 / constrained_intra=0 / bframes=3 / b_pyramid=2 / b_adapt=2 / b_bias=0 / direct=3 / weightb=1 / open_gop=0 / weightp=2 / keyint=240 / keyint_min=24 / scenecut=40 / intra_refresh=0 / rc_lookahead=50 / rc=2pass / mbtree=1 / bitrate=5343 / ratetol=1.0 / qcomp=0.60 / qpmin=0 / qpmax=69 / qpstep=4 / cplxblur=20.0 / qblur=0.5 / ip_ratio=1.40 / aq=3:0.80, w, P; |6 z, M# f+ K3 c+ X) _2 @
  25. Default                                  : Yes# `2 d1 y$ Q) s3 g) A- f
  26. Forced                                   : No
    ! ?% {$ M4 L- X' U4 {/ X, x
  27. Statistics Tags Issue                    : no_variable_data 1970-01-01 00:00:00 / no_variable_data 2010-02-22 21:41:293 t3 U. k3 v" p; i
  28. FromStats_BitRate                        : 5342941$ w/ b5 ?9 C3 L% k* V
  29. FromStats_Duration                       : 01:31:17.1800000001 q7 u$ L- `& j8 N9 l# g
  30. FromStats_FrameCount                     : 131321# U7 Y/ g7 h1 s
  31. FromStats_StreamSize                     : 3658031584$ m: g' }6 e, `: ^$ T& G
  32. ) n2 w7 [6 Q4 f- r2 G: T, ^/ W2 s
  33. Audio' p  {# k3 c8 ?2 f
  34. ID                                       : 2; ^9 g- ?$ ]' T. E" A
  35. Format                                   : DTS) q) x' ]4 A( [* C
  36. Format/Info                              : Digital Theater Systems
    + g4 X* z$ R% c: B4 B. w
  37. Codec ID                                 : A_DTS0 }0 u+ w6 J4 v/ f' B3 n
  38. Duration                                 : 1 h 31 min' s* W; ~2 P+ ~% V1 E; G8 F% F& u
  39. Bit rate mode                            : Constant; U9 g3 f# U- G9 ]" ~1 I2 D) b
  40. Bit rate                                 : 1 509 kb/s
    ) l' V0 I  m- A8 B( m8 A; r0 {$ i
  41. Channel(s)                               : 6 channels, Z) n4 C! K" i2 y1 \( g% @
  42. Channel layout                           : C L R Ls Rs LFE
    4 W/ G2 P+ C- x' n& L
  43. Sampling rate                            : 48.0 kHz1 \# ~3 B, C# w/ X1 @
  44. Frame rate                               : 93.750 FPS (512 SPF)
    7 |! K0 C+ \, e8 c. O/ d; B/ K3 r
  45. Bit depth                                : 24 bits: H" H6 t0 p4 q6 d+ {  o  C! |
  46. Compression mode                         : Lossy
    / K4 N9 S$ v9 y
  47. Stream size                              : 985 MiB (22%)$ `8 O: ]& g$ b
  48. Language                                 : English
    ' T5 L7 p$ Y! p5 J5 U
  49. Default                                  : Yes+ {9 d! I+ [6 e. C  b  \
  50. Forced                                   : No. q: h* D* w( u/ x
  51. Statistics Tags Issue                    : no_variable_data 1970-01-01 00:00:00 / no_variable_data 2010-02-22 21:41:29' U( T4 a- y( X0 K, ~0 U9 }% ^
  52. FromStats_BitRate                        : 15089998 x) A* f7 e- d, P
  53. FromStats_Duration                       : 01:31:17.1420000007 H0 L, O/ |2 J
  54. FromStats_FrameCount                     : 513482* z! F; i4 O0 s; i; l3 h" L$ x' {
  55. FromStats_StreamSize                     : 1033125784. y. R7 T) ~6 T

  56. ( P4 X1 a8 |: [4 r1 T( u$ C
  57. Menu0 o4 E! I, Y. v' @' M0 T
  58. 00:00:00.000                             : en:Chapter 01
    " y! o1 _( a5 |4 j# e, v9 P9 s5 [
  59. 00:07:55.475                             : en:Chapter 02
    . s3 U; V6 E; n
  60. 00:24:48.487                             : en:Chapter 03  ]& j2 Y, _# h' g9 e+ _/ B
  61. 00:43:08.586                             : en:Chapter 04
    + V* g; ?" n3 y, [$ k" A  K
  62. 00:55:34.331                             : en:Chapter 057 U9 v8 L/ @. H# G; c1 x8 ]- E9 V
  63. 01:06:36.993                             : en:Chapter 06
    / i3 M6 ]" b3 U4 U
  64. 01:17:23.639                             : en:Chapter 07
    ( f/ ~2 i( O: M% N1 N
  65. 01:27:47.262                             : en:Chapter 08
复制代码
2 U- [' n7 a7 e6 }$ ~0 l+ O' u- g
进犯链 Kill.Chain.2019.720p.Bluray.x264-FilmHD 4.37GB-2.png
$ z7 Y9 h5 ]5 r; V% G" f: t- W2 Q

2 C+ G# o3 Z7 [8 I5 `) h& ]9 [' N; s% N- X

4 B! ^0 C+ y0 x( e" n3 g
; r0 C* j2 c; \3 E4 g
, K9 l- G* C2 m9 |7 g
回复

使用道具 举报

级别:初级观众 Lv.1

注册时间
2019-9-20
最后登录
2020-2-10
听众
2
收听
0
主题
0
蓝光币
6 枚
贡献
0 点
QQ
发表于 2020-1-14 21:44:14 | 显示全部楼层
感谢楼主无私分享
回复

使用道具 举报

级别:专业龙套 Lv.4

注册时间
2019-12-3
最后登录
2020-8-6
听众
4
收听
0
主题
0
蓝光币
500 枚
贡献
0 点
发表于 2020-1-15 10:20:57 | 显示全部楼层
/ e9 ~: ~! X; r0 G3 h  x
论坛不能没有像楼主这样的人才啊!我会一直支持中国高清电影网
回复

使用道具 举报

级别:群众演员 Lv.3

注册时间
2020-1-15
最后登录
2020-6-24
听众
2
收听
0
主题
0
蓝光币
34 枚
贡献
0 点
发表于 2020-1-15 23:53:48 | 显示全部楼层
! o$ P1 j- r8 M3 [2 r+ \
这东西我收了!谢谢楼主!中国高清电影网真好!
回复

使用道具 举报

懒得打字嘛,点击右侧快捷回复 【右侧内容,后台自定义】
您需要登录后才可以回帖 登录 | 立即注册

本版积分规则

Archiver|手机版|小黑屋| 中国高清网 ( ICP备17007870号-2 ) |网站地图 

GMT+8, 2020-8-7 11:30 , Processed in 0.166052 second(s), 40 queries .

Powered by HDchina X3.4

Copyright 2017-2019©HDchina.All right reserved

返回顶部 联系我们