查看: 73|回复: 3

[动作片] 攻击链 Kill.Chain.2019.720p.Bluray.x264-FilmHD 4.37GB

[复制链接]

 成长值: 3900

级别:资源管理组

注册时间
2017-10-20
最后登录
2020-1-28
听众
1
收听
0
主题
90930
蓝光币
86488 枚
贡献
15292 点
发表于 2020-1-14 17:21:14 | 显示全部楼层 |阅读模式
进犯链 Kill.Chain.2019.720p.Bluray.x264-FilmHD 4.37GB-1.png
) l$ c& Y+ M9 [& m% ]/ o9 R& b
# E$ z/ C3 ]" u1 y; k, j* H& q译  名 进犯链4 {* y, O; F7 S1 O
片  名 Kill Chain
' c. |, w& R9 t. V# E7 ?, T) J$ J年  代 2019' M" x6 w( {1 ~1 c. A. q
产  地 美国
! K2 ?: M, o$ F2 K1 e类  别 行动 / 惊悚& e) Q6 q9 d/ w6 w9 I: E/ J
语  言 英语
9 d3 l! A7 H$ w+ d) x0 K上映日期 2019-10-18(美国): ~+ f# A; u+ }# I0 c3 |$ K) B
IMDb评分  5.1/10 from 1553 users
+ R* k' _$ A  g, t' W) g- XIMDb链接  https://www.imdb.com/title/tt8535180. S, y$ j5 v4 N7 P3 U2 I% A
豆瓣评分 5.8/10 from 536 users
& p' @( E! @! m9 h) G+ j' h豆瓣链接 https://movie.douban.com/subject/30218533/' N; ?! _- M4 m. M6 W# l6 h; [
片  长 91分钟$ }! I8 B& B/ U8 g, _. I
导  演 肯·桑泽尔 Ken Sanzel
5 h2 R9 c9 y& C7 i, {  M编  剧 肯·桑泽尔 Ken Sanzel
( p5 f  a. B, `# w主  演 尼古拉斯·凯奇 Nicolas Cage
- |' G" u+ m0 h+ D) `: r       恩里克·克兰东尼 Enrico Colantoni. m& |( v6 d3 N6 ?
       瑞恩·柯万腾 Ryan Kwanten
! `+ n( p' c& X5 ]$ B) D! k1 r       阿里米·巴尔拉德 Alimi Ballard
- y: n1 I7 |7 F  U& R# `       安吉·塞佩达 Angie Cepeda2 r3 i) d+ \7 ^, z
       乔恩·马克 Jon Mack
7 j; s5 s2 P( p2 L4 @* r       埃迪·马丁内斯 Eddie Martinez
7 h: O6 r3 ?, R  f  T  |1 n       卢纳·巴克斯特 Luna Baxter: [( D- l& o+ ]! m# T. n, @1 P9 |
       Anabelle Acosta. U: ~& l/ [  Z* }
       Pedro Calvo
& {+ W. E8 _7 P       Sara Elizabeth Avila
) G. }% s6 I- U6 w       Hector Alexander Gomez
/ m3 s& V) I0 z: \! ~       Juan Andres Angulo
1 Z/ w$ q  E* E" J- F       Yusuf Tangarife
$ z$ N6 a- J3 {' D5 a* {       Jhon Bedoya
/ d. G7 r, X# D, c% e  y% H4 Y( `# [
8 \% a* ?! R& H3 q) ?9 K) d+ t/ W4 {8 N8 D
标  签 尼古拉斯凯奇 | 犯罪 | 行动 | 美国 | 暴力 | 2019 | 美国电影 | 尼古拉斯·凯奇
% x% g8 d* X7 m4 V) S) o7 @; J& e  \; o7 \
简  介  2 C, r  \( W; a6 o
3 x% [6 P2 A6 g* U
  尼古拉斯·凯奇或将出演全新影片[进犯链](Kill Chain,暂译),该片由肯·桑泽尔([替人杀手])自编自导。故事报告三个陌生人,他们相互将堕入史无前例的抵触中。该片在戛纳电影节上被描述为最棒的黑色侦察影片。千禧年影业负责建造。
3 ^( f1 k0 I: o0 o/ L2 g
  1. Video
    & v- T# v  s' Z( A2 d0 ~% ?! c, `
  2. ID                                       : 1
    : }, g& \& e* i
  3. Format                                   : AVC
    * u+ D% c' C6 a" u, F  O* P
  4. Format/Info                              : Advanced Video Codec7 X$ u; T6 }; T7 |
  5. Format profile                           : High@L4
      ?9 D9 J( F8 Y" `5 P/ e
  6. Format settings                          : CABAC / 5 Ref Frames& y: a; S' T, z3 g4 e2 [" ~" k
  7. Format settings, CABAC                   : Yes- C0 n+ Z3 v( d: q. H/ c# m3 u, X
  8. Format settings, Reference frames        : 5 frames
    ; S0 N2 n. Y* i6 n7 d# w
  9. Codec ID                                 : V_MPEG4/ISO/AVC0 [  \/ |3 d- g0 D' N
  10. Duration                                 : 1 h 31 min0 \" l3 t9 w! A$ p; q# F& H' y: V& e
  11. Bit rate                                 : 5 343 kb/s$ z# N8 K6 D3 C. c$ _) p1 f/ z8 p
  12. Width                                    : 1 280 pixels
    # \8 _6 ?% i+ D
  13. Height                                   : 688 pixels
    " N" W4 e) C! w  ~& i* L) F
  14. Display aspect ratio                     : 1.85:12 C: W# ~' [* A" M# n& V0 J
  15. Frame rate mode                          : Constant. O6 m: ]; o! {/ Z2 M
  16. Frame rate                               : 23.976 (24000/1001) FPS: Q; Q! A. |4 I! g! {* e
  17. Color space                              : YUV1 @& N; Y" L: W- F0 c0 \
  18. Chroma subsampling                       : 4:2:0' \, n# G! [# K$ a8 n
  19. Bit depth                                : 8 bits
    " H' X6 @" r! x  p" |
  20. Scan type                                : Progressive
    : T! m' N8 w( S4 F3 Y) [( x
  21. Bits/(Pixel*Frame)                       : 0.253$ K; x# f* M3 P- L% a
  22. Stream size                              : 3.32 GiB (76%)
    1 y( Q0 x4 h+ [: G' w; U! G
  23. Writing library                          : x264 core 159 r2991 1771b55
    9 ^8 o: i; Q) X% S
  24. Encoding settings                        : cabac=1 / ref=5 / deblock=1:-3:-3 / analyse=0x3:0x113 / me=umh / subme=8 / psy=1 / psy_rd=1.00:0.00 / mixed_ref=1 / me_range=24 / chroma_me=1 / trellis=2 / 8x8dct=1 / cqm=0 / deadzone=21,11 / fast_pskip=1 / chroma_qp_offset=-2 / threads=18 / lookahead_threads=3 / sliced_threads=0 / nr=0 / decimate=1 / interlaced=0 / bluray_compat=0 / constrained_intra=0 / bframes=3 / b_pyramid=2 / b_adapt=2 / b_bias=0 / direct=3 / weightb=1 / open_gop=0 / weightp=2 / keyint=240 / keyint_min=24 / scenecut=40 / intra_refresh=0 / rc_lookahead=50 / rc=2pass / mbtree=1 / bitrate=5343 / ratetol=1.0 / qcomp=0.60 / qpmin=0 / qpmax=69 / qpstep=4 / cplxblur=20.0 / qblur=0.5 / ip_ratio=1.40 / aq=3:0.80$ v% E. @/ N% I+ o- X
  25. Default                                  : Yes0 E. Z; D" o# g1 p* |
  26. Forced                                   : No
    + W+ A5 p; L( X+ \, m% M/ y
  27. Statistics Tags Issue                    : no_variable_data 1970-01-01 00:00:00 / no_variable_data 2010-02-22 21:41:29
    4 k) E+ ?' ~9 R; k
  28. FromStats_BitRate                        : 5342941# S9 M. M+ @, ^7 S* m% F$ J
  29. FromStats_Duration                       : 01:31:17.1800000007 r; S4 W8 y$ D6 M" s# \
  30. FromStats_FrameCount                     : 131321& O8 U' f; r- s! z2 P
  31. FromStats_StreamSize                     : 3658031584
    7 Z# U( W  R0 H/ q' a; y& `
  32. ( j$ g- p7 `* v1 C2 m
  33. Audio9 @( P8 e/ f- O) F. |, f" K" g
  34. ID                                       : 2
    6 G. V9 v! b9 m# Q+ {5 q4 X
  35. Format                                   : DTS
    9 f% C- K# C! C
  36. Format/Info                              : Digital Theater Systems
    ! Q8 d6 W; H3 j8 ]# ]( ]; P  y
  37. Codec ID                                 : A_DTS
    # i7 W6 E. n1 i3 l  u- D- C% k
  38. Duration                                 : 1 h 31 min
    + j! _) H2 R. S7 l( R- a
  39. Bit rate mode                            : Constant
    9 H  `* }9 @& d4 z
  40. Bit rate                                 : 1 509 kb/s  U$ n: t8 P2 k% `& o9 t/ B, B% _6 T% I
  41. Channel(s)                               : 6 channels
    9 G1 s; ?( y3 N7 k5 f3 J& N" Z
  42. Channel layout                           : C L R Ls Rs LFE8 i+ v( }; m# s* ~$ G6 K
  43. Sampling rate                            : 48.0 kHz
    % H1 [5 U# |  E6 s0 q5 Q& h, h
  44. Frame rate                               : 93.750 FPS (512 SPF)
    5 x, O. r, T& w
  45. Bit depth                                : 24 bits
    ( `2 v: {: n7 h0 n1 b* D# Y" h
  46. Compression mode                         : Lossy$ o, [$ o* B" S8 f2 T: O% F
  47. Stream size                              : 985 MiB (22%)' l: |! @" y+ T
  48. Language                                 : English
    # i# G" C2 o; A" F) j5 v% ]
  49. Default                                  : Yes5 s& H4 O) |) B# o0 h. V
  50. Forced                                   : No
    7 J8 H5 \: s: Y! e( `
  51. Statistics Tags Issue                    : no_variable_data 1970-01-01 00:00:00 / no_variable_data 2010-02-22 21:41:295 R' c& I' y9 M* M' c' H+ @
  52. FromStats_BitRate                        : 1508999
    * o& o( v% J* }" O' ~9 ?. L
  53. FromStats_Duration                       : 01:31:17.142000000
    ; j& H( t# K4 }$ b( w, G
  54. FromStats_FrameCount                     : 5134822 p& G+ h) I1 X1 M1 m
  55. FromStats_StreamSize                     : 1033125784! I! s  j8 k, _) e# r; z
  56. # @5 i& |1 H) U4 X7 y
  57. Menu
    . o- R* O* y1 ]7 Z( N# Z
  58. 00:00:00.000                             : en:Chapter 01
    . l0 o3 d9 Q3 U" Y5 v1 M# K
  59. 00:07:55.475                             : en:Chapter 02! j, A( h' d' N% i+ I" o# Z& L
  60. 00:24:48.487                             : en:Chapter 03
    " R5 o6 N2 G& r
  61. 00:43:08.586                             : en:Chapter 04" v6 N  l( Q! n/ |) k
  62. 00:55:34.331                             : en:Chapter 05
    4 S& L' h) V1 z* U5 D
  63. 01:06:36.993                             : en:Chapter 06
    & `2 Z$ K- }6 b2 z
  64. 01:17:23.639                             : en:Chapter 07
    2 y+ A& W5 d+ |
  65. 01:27:47.262                             : en:Chapter 08
复制代码

6 g- X8 P% `3 r% J, w5 C2 K 进犯链 Kill.Chain.2019.720p.Bluray.x264-FilmHD 4.37GB-2.png
* o1 t$ e$ N) S1 S& c; M& p" s( S5 }2 r. P( Y/ s

. a% _* u7 |: F8 R
; Q  J' l- x2 |' a* e
' q+ Y1 s  L# s9 r
8 a0 ~- ^. W) X6 l' s+ ?3 k# u
7 |8 Z! x, T  r; z3 L
VIP会员免费任意下载本站所有资源!---点击开通
回复

使用道具 举报

级别:初级观众 Lv.1

注册时间
2019-9-20
最后登录
2020-1-14
听众
0
收听
0
主题
0
蓝光币
4 枚
贡献
0 点
QQ
发表于 2020-1-14 21:44:14 | 显示全部楼层
感谢楼主无私分享
VIP会员免费任意下载本站所有资源!---点击开通
回复

使用道具 举报

级别:群众演员 Lv.3

注册时间
2019-12-3
最后登录
2020-1-28
听众
1
收听
0
主题
0
蓝光币
114 枚
贡献
0 点
发表于 2020-1-15 10:20:57 | 显示全部楼层
8 L  X% N2 Q1 f2 b6 w
论坛不能没有像楼主这样的人才啊!我会一直支持中国高清电影网
VIP会员免费任意下载本站所有资源!---点击开通
回复

使用道具 举报

级别:初级观众 Lv.1

注册时间
2020-1-15
最后登录
2020-1-27
听众
1
收听
0
主题
0
蓝光币
6 枚
贡献
0 点
发表于 2020-1-15 23:53:48 | 显示全部楼层
5 ?  g4 w" Z* G# w- V$ v; @6 r. i+ ]
这东西我收了!谢谢楼主!中国高清电影网真好!
VIP会员免费任意下载本站所有资源!---点击开通
回复

使用道具 举报

懒得打字嘛,点击右侧快捷回复 【右侧内容,后台自定义】
您需要登录后才可以回帖 登录 | 立即注册

本版积分规则

Archiver|手机版|小黑屋| 中国高清网 |网站地图

GMT+8, 2020-1-28 21:09 , Processed in 0.318045 second(s), 38 queries .

Powered by HDchina X3.4

Copyright 2017-2019©HDchina.All right reserved

返回顶部 联系我们