查看: 131|回复: 2

[纪录片] 麦克·布雷 相约麦迪逊花园广场演唱会 Michael.Buble.Meets.Madison.Square.Garden.2009.1080p.BluRay.x264-HANDJOB 4.64GB

[复制链接]

 成长值: 6410

级别:资源管理组

注册时间
2017-10-20
最后登录
2020-8-7
听众
1
收听
0
主题
100960
蓝光币
179126 枚
贡献
21715 点
发表于 2020-1-14 16:15:57 | 显示全部楼层 |阅读模式
麦克·布雷 相约麦迪逊花园广场演唱会 Michael.Buble.Meets.Madison.Square.Garden.2009.1080p.BluRay.x264-HANDJOB 4.64GB-1.png

译  名 麦克·布雷 相约麦迪逊花园广场演唱会
片  名 Michael Bublé Meets Madison Square Garden
年  代 2009
产  地 美国
类  别 记载片 / 音乐
语  言 英语
IMDb评分  8.4/10 from 44 users
IMDb链接  https://www.imdb.com/title/tt1522827
豆瓣评分 9.4/10 from 42 users
豆瓣链接 https://movie.douban.com/subject/4854063/
导  演 Jason Hehir / Dick Carruthers
主  演 迈克尔·布雷 Michael Bublé


标  签 MichaelBublé | Live | Concert | 记载片 | 音乐 | 演唱会 | 音乐电影 | 当落

简  介  

  01.I'm Your Man
  02.Me and Mrs. Jones
  03.Call Me Irresponsible
  04.I've got the World On A String
  05.Lost
  06.Feeling Good
  07.Home
  08.Everything
  09.Crazy Little Thing Called Love
  10.Song For You
  60 minutes of live performance, interviews and backstage footage
  Bonus Performances
  Stardust
  You're Nobody Till Somebody Loves You
  1. Video
  2. ID                                       : 1
  3. Format                                   : AVC
  4. Format/Info                              : Advanced Video Codec
  5. Format profile                           : High@L4
  6. Format settings                          : CABAC / 4 Ref Frames
  7. Format settings, CABAC                   : Yes
  8. Format settings, Reference frames        : 4 frames
  9. Codec ID                                 : V_MPEG4/ISO/AVC
  10. Duration                                 : 1 h 1 min
  11. Bit rate                                 : 10.2 Mb/s
  12. Width                                    : 1 914 pixels
  13. Height                                   : 1 080 pixels
  14. Display aspect ratio                     : 16:9
  15. Frame rate mode                          : Constant
  16. Frame rate                               : 23.976 (24000/1001) FPS
  17. Color space                              : YUV
  18. Chroma subsampling                       : 4:2:0
  19. Bit depth                                : 8 bits
  20. Scan type                                : Progressive
  21. Bits/(Pixel*Frame)                       : 0.206
  22. Stream size                              : 4.36 GiB (94%)
  23. Writing library                          : x264 core 157 r2935 545de2f
  24. Encoding settings                        : cabac=1 / ref=4 / deblock=1:-3:-3 / analyse=0x3:0x133 / me=umh / subme=10 / psy=1 / psy_rd=1.00:0.00 / mixed_ref=1 / me_range=32 / chroma_me=1 / trellis=2 / 8x8dct=1 / cqm=0 / deadzone=21,11 / fast_pskip=0 / chroma_qp_offset=-2 / threads=34 / lookahead_threads=8 / sliced_threads=0 / nr=0 / decimate=0 / interlaced=0 / bluray_compat=0 / constrained_intra=0 / bframes=16 / b_pyramid=2 / b_adapt=2 / b_bias=0 / direct=3 / weightb=1 / open_gop=0 / weightp=2 / keyint=240 / keyint_min=24 / scenecut=40 / intra_refresh=0 / rc_lookahead=60 / rc=crf / mbtree=0 / crf=22.5 / qcomp=0.60 / qpmin=0 / qpmax=69 / qpstep=4 / vbv_maxrate=62500 / vbv_bufsize=78125 / crf_max=0.0 / nal_hrd=none / filler=0 / ip_ratio=1.40 / pb_ratio=1.30 / aq=2:1.00
  25. Default                                  : Yes
  26. Forced                                   : No
  27. Color range                              : Limited
  28. Color primaries                          : BT.709
  29. Transfer characteristics                 : BT.709
  30. Matrix coefficients                      : BT.709

  31. Audio
  32. ID                                       : 2
  33. Format                                   : AC-3
  34. Format/Info                              : Audio Coding 3
  35. Commercial name                          : Dolby Digital
  36. Codec ID                                 : A_AC3
  37. Duration                                 : 1 h 1 min
  38. Bit rate mode                            : Constant
  39. Bit rate                                 : 640 kb/s
  40. Channel(s)                               : 6 channels
  41. Channel layout                           : L R C LFE Ls Rs
  42. Sampling rate                            : 48.0 kHz
  43. Frame rate                               : 31.250 FPS (1536 SPF)
  44. Bit depth                                : 16 bits
  45. Compression mode                         : Lossy
  46. Stream size                              : 280 MiB (6%)
  47. Language                                 : English
  48. Service kind                             : Complete Main
  49. Default                                  : Yes
  50. Forced                                   : No

  51. Text #1
  52. ID                                       : 3
  53. Format                                   : PGS
  54. Muxing mode                              : zlib
  55. Codec ID                                 : S_HDMV/PGS
  56. Codec ID/Info                            : Picture based subtitle format used on BDs/HD-DVDs
  57. Duration                                 : 58 min 1 s
  58. Bit rate                                 : 27.3 kb/s
  59. Count of elements                        : 1126
  60. Stream size                              : 11.3 MiB (0%)
  61. Language                                 : English
  62. Default                                  : No
  63. Forced                                   : No

  64. Text #2
  65. ID                                       : 4
  66. Format                                   : PGS
  67. Muxing mode                              : zlib
  68. Codec ID                                 : S_HDMV/PGS
  69. Codec ID/Info                            : Picture based subtitle format used on BDs/HD-DVDs
  70. Duration                                 : 58 min 1 s
  71. Bit rate                                 : 27.4 kb/s
  72. Count of elements                        : 1118
  73. Stream size                              : 11.3 MiB (0%)
  74. Language                                 : French
  75. Default                                  : No
  76. Forced                                   : No

  77. Text #3
  78. ID                                       : 5
  79. Format                                   : PGS
  80. Muxing mode                              : zlib
  81. Codec ID                                 : S_HDMV/PGS
  82. Codec ID/Info                            : Picture based subtitle format used on BDs/HD-DVDs
  83. Duration                                 : 58 min 1 s
  84. Bit rate                                 : 30.7 kb/s
  85. Count of elements                        : 1154
  86. Stream size                              : 12.8 MiB (0%)
  87. Language                                 : German
  88. Default                                  : No
  89. Forced                                   : No

  90. Text #4
  91. ID                                       : 6
  92. Format                                   : PGS
  93. Muxing mode                              : zlib
  94. Codec ID                                 : S_HDMV/PGS
  95. Codec ID/Info                            : Picture based subtitle format used on BDs/HD-DVDs
  96. Duration                                 : 58 min 1 s
  97. Bit rate                                 : 26.8 kb/s
  98. Count of elements                        : 1126
  99. Stream size                              : 11.1 MiB (0%)
  100. Language                                 : Italian
  101. Default                                  : No
  102. Forced                                   : No

  103. Text #5
  104. ID                                       : 7
  105. Format                                   : PGS
  106. Muxing mode                              : zlib
  107. Codec ID                                 : S_HDMV/PGS
  108. Codec ID/Info                            : Picture based subtitle format used on BDs/HD-DVDs
  109. Duration                                 : 58 min 1 s
  110. Bit rate                                 : 28.6 kb/s
  111. Count of elements                        : 1118
  112. Stream size                              : 11.9 MiB (0%)
  113. Language                                 : Portuguese
  114. Default                                  : No
  115. Forced                                   : No

  116. Menu
  117. 00:00:00.000                             : :Chapter 1
  118. 00:05:00.008                             : :Chapter 2
  119. 00:10:00.100                             : :Chapter 3
  120. 00:15:00.066                             : :Chapter 4
  121. 00:20:00.074                             : :Chapter 5
  122. 00:25:00.040                             : :Chapter 6
  123. 00:30:00.090                             : :Chapter 7
  124. 00:35:00.056                             : :Chapter 8
  125. 00:40:00.064                             : :Chapter 9
  126. 00:45:00.031                             : :Chapter 10
  127. 00:50:00.039                             : :Chapter 11
  128. 00:55:00.047                             : :Chapter 12
  129. 01:00:00.055                             : :Chapter 13
复制代码

麦克·布雷 相约麦迪逊花园广场演唱会 Michael.Buble.Meets.Madison.Square.Garden.2009.1080p.BluRay.x264-HANDJOB 4.64GB-2.png 麦克·布雷 相约麦迪逊花园广场演唱会 Michael.Buble.Meets.Madison.Square.Garden.2009.1080p.BluRay.x264-HANDJOB 4.64GB-3.png 麦克·布雷 相约麦迪逊花园广场演唱会 Michael.Buble.Meets.Madison.Square.Garden.2009.1080p.BluRay.x264-HANDJOB 4.64GB-4.png






回复

使用道具 举报

级别:专业龙套 Lv.4

注册时间
2020-1-1
最后登录
2020-7-20
听众
2
收听
0
主题
0
蓝光币
218 枚
贡献
0 点
发表于 2020-1-14 21:36:15 | 显示全部楼层

感谢楼主的无私分享!要想中国高清电影网好 就靠你我他
回复

使用道具 举报

级别:领衔主演 Lv.6

注册时间
2018-2-26
最后登录
2020-8-6
听众
19
收听
0
主题
0
蓝光币
290 枚
贡献
0 点
发表于 2020-1-15 09:30:39 | 显示全部楼层

我看不错噢 谢谢楼主!中国高清电影网越来越好!
回复

使用道具 举报

懒得打字嘛,点击右侧快捷回复 【右侧内容,后台自定义】
您需要登录后才可以回帖 登录 | 立即注册

本版积分规则

Archiver|手机版|小黑屋| 中国高清网 ( ICP备17007870号-2 ) |网站地图 

GMT+8, 2020-8-7 11:12 , Processed in 0.194423 second(s), 40 queries .

Powered by HDchina X3.4

Copyright 2017-2019©HDchina.All right reserved

返回顶部 联系我们