查看: 1067|回复: 8

[8bit.SDR] 丧尸乐园2 Zombieland.Double.Tap.2019.2160p.BluRay.x264.8bit.SDR.DTS-X.7.1-SWTYBLZ 21.64GB

[复制链接]

 成长值: 6410

级别:资源管理组

注册时间
2017-10-20
最后登录
2020-8-7
听众
1
收听
0
主题
100960
蓝光币
179138 枚
贡献
21715 点
发表于 2020-1-10 23:09:30 | 显示全部楼层 |阅读模式
丧尸乐园2 Zombieland.Double.Tap.2019.2160p.BluRay.x264.8bit.SDR.DTS-X.7.1-SWTYBLZ 21.64GB-1.png

译  名 丧尸乐园2 / Zombieland 2 / 丧尸乐园2:双击 / 丧尸乐园:连环尸杀(港) / 僵尸之地2 / 僵尸之地2:双击 / 尸乐园:脏比双拼(台)
片  名 Zombieland: Double Tap
年  代 2019
产  地 美国 / 加拿大
类  别 笑剧 / 行动 / 可骇
语  言 英语
上映日期 2019-10-09(中国台湾) / 2019-10-18(美国)
IMDb评分  6.9/10 from 61783 users
IMDb链接  https://www.imdb.com/title/tt1560220
豆瓣评分 7.0/10 from 17907 users
豆瓣链接 https://movie.douban.com/subject/4185834/
片  长 99分钟
导  演 鲁本·弗雷斯彻 Ruben Fleischer
编  剧 戴夫·卡拉汉姆 Dave Callaham / 瑞特·里斯 Rhett Reese / 保罗·韦尼克 Paul Wernick
主  演 伍迪·哈里森 Woody Harrelson
       杰西·艾森伯格 Jesse Eisenberg
       艾玛·斯通 Emma Stone
       阿比盖尔·布雷斯林 Abigail Breslin
       佐伊·达奇 Zoey Deutch
       阿万·乔贾 Avan Jogia
       罗莎里奥·道森 Rosario Dawson
       卢克·威尔逊 Luke Wilson
       托马斯·米德蒂奇 Thomas Middleditch
       维多利亚·哈尔 Victoria Hall
       维克多·里维拉 Victor Rivera
       伊恩·格雷格 Ian Gregg
       德文·莫吉卡 Devin Mojica
       瑞秋·鲁特雷尔 Rachel Luttrell
       约翰·迪克森 John Dixon
       比尔·默瑞 Bill Murray
       阿尔·罗克 Al Roker
       莉莉·埃斯特凡 Lili Estefan
       塞尔吉奥·布里奥内斯 Sergio Briones
       蒂莫西·卡尔 Timothy Carr
       扎拉·麦克道威尔 Zara McDowell
       迪索·拉莫斯 Diezel Ramos


标  签 笑剧 | 丧尸 | 美国 | 搞笑 | 僵尸 | 2019 | 可骇 | 行动

简  介  

  《僵尸之地》是鲁本·弗雷斯彻的导演童贞作,上映后好评如潮——获得了烂番茄89%的惊人好评率,此片一举奠基了鲁本在好莱坞贸易范畴的职位。首映周末以2500万美圆登顶冠军的《僵尸之地》,是遭到几年前《僵尸肖恩》的启发停止创作的,影片报告了一种致命病毒囊括了美国,只要被病毒传染,就会酿成僵尸。终极,只要几个幸存者没有被传抱病毒,决议逃离,获得保存的机遇。两本性情悬殊的汉子凑到了一路,前者看待僵尸的打击别故意得(制定了一大堆“法则”),后者则是个暴力崇尚者,诡计杀光一切的僵尸。在他们流亡的途中,相逢了两个精明的女幸存者,他们四人决议一路分享对于僵尸的经历,获得逃生的机遇。但是,在杀戮进程中,他们遭受的危险超越了一切人的设想。依照好莱坞卖座片的范例纪律,像《僵尸之地》这类投资仅2000多万美圆,没有一线大牌主演的僵尸片,根基都是烂片集合营确当家老迈,但此片的成功却来的很是迅猛。这全归功于导演的创意,影片结尾飞腾处在游乐园大战僵尸一段,观赏性极强。
  《僵尸之地》的主演杰西·艾森伯格、伍迪·哈里森、艾玛·斯通、阿比盖尔·布莱斯林,今朝已肯定愿意回归剧组加入续集的拍摄,但剧本仍然在创作当中,估计10年上半年开机。
  电影《僵尸之地》(Zombieland)导演鲁本.费雷斯彻(Ruben Fleischer)克日在接管采访时流露《僵尸之地》续集有望2010年年末正式开拍。
  “我们正在与制片方打仗,我们有一些点子它们也很是喜好。我们必定会以3D的形式拍摄这部续集。索尼现在已经有自己的3D部分了,我们将在周二(3月2日)参观索尼的3D部分。我晓得一切原班人马都很冲动回归续集,这将是1部拍摄进程非常出色风趣的电影。剧本行将起头创作,我希望能在今年年末大概明年年头正式开拍《僵尸之地2》。”
  1. Video
  2. ID                                       : 1
  3. Format                                   : AVC
  4. Format/Info                              : Advanced Video Codec
  5. Format profile                           : High@L4
  6. Format settings                          : CABAC / 5 Ref Frames
  7. Format settings, CABAC                   : Yes
  8. Format settings, Reference frames        : 5 frames
  9. Codec ID                                 : V_MPEG4/ISO/AVC
  10. Duration                                 : 1 h 39 min
  11. Bit rate                                 : 24.7 Mb/s
  12. Width                                    : 3 840 pixels
  13. Height                                   : 1 606 pixels
  14. Display aspect ratio                     : 2.40:1
  15. Frame rate mode                          : Constant
  16. Frame rate                               : 23.976 (24000/1001) FPS
  17. Color space                              : YUV
  18. Chroma subsampling                       : 4:2:0
  19. Bit depth                                : 8 bits
  20. Scan type                                : Progressive
  21. Bits/(Pixel*Frame)                       : 0.167
  22. Stream size                              : 17.1 GiB (79%)
  23. Title                                    : Zombieland.Double.Tap.2019.2160p.BluRay.x264.8bit.SDR.DTS-X.7.1-SWTYBLZ
  24. Writing library                          : x264 core 157 r2935 545de2f
  25. Encoding settings                        : cabac=1 / ref=5 / deblock=1:-1:-1 / analyse=0x3:0x113 / me=umh / subme=10 / psy=1 / psy_rd=1.00:0.15 / mixed_ref=1 / me_range=48 / chroma_me=1 / trellis=2 / 8x8dct=1 / cqm=0 / deadzone=21,11 / fast_pskip=1 / chroma_qp_offset=-3 / threads=36 / lookahead_threads=3 / sliced_threads=0 / nr=0 / decimate=0 / interlaced=0 / bluray_compat=0 / constrained_intra=0 / bframes=3 / b_pyramid=2 / b_adapt=2 / b_bias=0 / direct=3 / weightb=1 / open_gop=0 / weightp=2 / keyint=250 / keyint_min=23 / scenecut=40 / intra_refresh=0 / rc_lookahead=50 / rc=crf / mbtree=1 / crf=18.0 / qcomp=0.60 / qpmin=0 / qpmax=69 / qpstep=4 / ip_ratio=1.40 / aq=1:1.00
  26. Default                                  : Yes
  27. Forced                                   : No

  28. Audio #1
  29. ID                                       : 2
  30. Format                                   : DTS XLL
  31. Format/Info                              : Digital Theater Systems
  32. Commercial name                          : DTS-HD Master Audio
  33. Codec ID                                 : A_DTS
  34. Duration                                 : 1 h 39 min
  35. Bit rate mode                            : Variable
  36. Bit rate                                 : 5 292 kb/s
  37. Channel(s)                               : 8 channels
  38. Channel layout                           : C L R LFE Lb Rb Lss Rss
  39. Sampling rate                            : 48.0 kHz
  40. Frame rate                               : 93.750 FPS (512 SPF)
  41. Bit depth                                : 24 bits
  42. Compression mode                         : Lossless
  43. Stream size                              : 3.66 GiB (17%)
  44. Title                                    : Zombieland.Double.Tap.2019.2160p.BluRay.x264.8bit.SDR.DTS-X.7.1-SWTYBLZ
  45. Language                                 : English
  46. Default                                  : Yes
  47. Forced                                   : No

  48. Audio #2
  49. ID                                       : 3
  50. Format                                   : AC-3
  51. Format/Info                              : Audio Coding 3
  52. Commercial name                          : Dolby Digital
  53. Codec ID                                 : A_AC3
  54. Duration                                 : 1 h 39 min
  55. Bit rate mode                            : Constant
  56. Bit rate                                 : 640 kb/s
  57. Channel(s)                               : 6 channels
  58. Channel layout                           : L R C LFE Ls Rs
  59. Sampling rate                            : 48.0 kHz
  60. Frame rate                               : 31.250 FPS (1536 SPF)
  61. Compression mode                         : Lossy
  62. Stream size                              : 453 MiB (2%)
  63. Title                                    : Zombieland.Double.Tap.2019.2160p.BluRay.x264.8bit.SDR.DTS-X.7.1-SWTYBLZ
  64. Language                                 : English
  65. Service kind                             : Complete Main
  66. Default                                  : No
  67. Forced                                   : No

  68. Text #1
  69. ID                                       : 4
  70. Format                                   : UTF-8
  71. Codec ID                                 : S_TEXT/UTF8
  72. Codec ID/Info                            : UTF-8 Plain Text
  73. Duration                                 : 1 h 38 min
  74. Bit rate                                 : 76 b/s
  75. Count of elements                        : 1414
  76. Stream size                              : 55.2 KiB (0%)
  77. Title                                    : English-SRT
  78. Language                                 : English
  79. Default                                  : Yes
  80. Forced                                   : No

  81. Text #2
  82. ID                                       : 5
  83. Format                                   : UTF-8
  84. Codec ID                                 : S_TEXT/UTF8
  85. Codec ID/Info                            : UTF-8 Plain Text
  86. Duration                                 : 1 h 38 min
  87. Bit rate                                 : 84 b/s
  88. Count of elements                        : 1599
  89. Stream size                              : 61.1 KiB (0%)
  90. Title                                    : English-SDH-SRT
  91. Language                                 : English
  92. Default                                  : No
  93. Forced                                   : No

  94. Text #3
  95. ID                                       : 6
  96. Format                                   : PGS
  97. Muxing mode                              : zlib
  98. Codec ID                                 : S_HDMV/PGS
  99. Codec ID/Info                            : Picture based subtitle format used on BDs/HD-DVDs
  100. Duration                                 : 1 h 38 min
  101. Bit rate                                 : 51.7 kb/s
  102. Count of elements                        : 3210
  103. Stream size                              : 36.4 MiB (0%)
  104. Title                                    : English-PGS
  105. Language                                 : English
  106. Default                                  : No
  107. Forced                                   : No

  108. Text #4
  109. ID                                       : 7
  110. Format                                   : PGS
  111. Muxing mode                              : zlib
  112. Codec ID                                 : S_HDMV/PGS
  113. Codec ID/Info                            : Picture based subtitle format used on BDs/HD-DVDs
  114. Duration                                 : 1 h 38 min
  115. Bit rate                                 : 46.4 kb/s
  116. Count of elements                        : 2844
  117. Stream size                              : 32.6 MiB (0%)
  118. Title                                    : English-SDH-PGS
  119. Language                                 : English
  120. Default                                  : No
  121. Forced                                   : No

  122. Text #5
  123. ID                                       : 8
  124. Format                                   : PGS
  125. Muxing mode                              : zlib
  126. Codec ID                                 : S_HDMV/PGS
  127. Codec ID/Info                            : Picture based subtitle format used on BDs/HD-DVDs
  128. Duration                                 : 28 min 6 s
  129. Bit rate                                 : 487 b/s
  130. Count of elements                        : 14
  131. Stream size                              : 100 KiB (0%)
  132. Title                                    : English-PGS
  133. Language                                 : English
  134. Default                                  : No
  135. Forced                                   : No

  136. Text #6
  137. ID                                       : 9
  138. Format                                   : PGS
  139. Muxing mode                              : zlib
  140. Codec ID                                 : S_HDMV/PGS
  141. Codec ID/Info                            : Picture based subtitle format used on BDs/HD-DVDs
  142. Duration                                 : 1 h 38 min
  143. Bit rate                                 : 51.8 kb/s
  144. Count of elements                        : 3210
  145. Stream size                              : 36.4 MiB (0%)
  146. Title                                    : English-SDH-PGS
  147. Language                                 : English
  148. Default                                  : No
  149. Forced                                   : No

  150. Text #7
  151. ID                                       : 10
  152. Format                                   : PGS
  153. Muxing mode                              : zlib
  154. Codec ID                                 : S_HDMV/PGS
  155. Codec ID/Info                            : Picture based subtitle format used on BDs/HD-DVDs
  156. Duration                                 : 1 h 38 min
  157. Bit rate                                 : 24.5 kb/s
  158. Count of elements                        : 3459
  159. Stream size                              : 17.2 MiB (0%)
  160. Title                                    : Arabic-PGS
  161. Language                                 : Arabic
  162. Default                                  : No
  163. Forced                                   : No

  164. Text #8
  165. ID                                       : 11
  166. Format                                   : PGS
  167. Muxing mode                              : zlib
  168. Codec ID                                 : S_HDMV/PGS
  169. Codec ID/Info                            : Picture based subtitle format used on BDs/HD-DVDs
  170. Duration                                 : 1 h 38 min
  171. Bit rate                                 : 33.8 kb/s
  172. Count of elements                        : 3485
  173. Stream size                              : 23.8 MiB (0%)
  174. Title                                    : Chinese-PGS
  175. Language                                 : Chinese
  176. Default                                  : No
  177. Forced                                   : No

  178. Text #9
  179. ID                                       : 12
  180. Format                                   : PGS
  181. Muxing mode                              : zlib
  182. Codec ID                                 : S_HDMV/PGS
  183. Codec ID/Info                            : Picture based subtitle format used on BDs/HD-DVDs
  184. Duration                                 : 1 h 38 min
  185. Bit rate                                 : 37.8 kb/s
  186. Count of elements                        : 3396
  187. Stream size                              : 26.6 MiB (0%)
  188. Title                                    : Chinese-PGS
  189. Language                                 : Chinese
  190. Default                                  : No
  191. Forced                                   : No

  192. Text #10
  193. ID                                       : 13
  194. Format                                   : PGS
  195. Muxing mode                              : zlib
  196. Codec ID                                 : S_HDMV/PGS
  197. Codec ID/Info                            : Picture based subtitle format used on BDs/HD-DVDs
  198. Duration                                 : 1 h 38 min
  199. Bit rate                                 : 34.3 kb/s
  200. Count of elements                        : 3492
  201. Stream size                              : 24.1 MiB (0%)
  202. Title                                    : Chinese-PGS
  203. Language                                 : Chinese
  204. Default                                  : No
  205. Forced                                   : No

  206. Text #11
  207. ID                                       : 14
  208. Format                                   : PGS
  209. Muxing mode                              : zlib
  210. Codec ID                                 : S_HDMV/PGS
  211. Codec ID/Info                            : Picture based subtitle format used on BDs/HD-DVDs
  212. Duration                                 : 1 h 38 min
  213. Bit rate                                 : 42.5 kb/s
  214. Count of elements                        : 3369
  215. Stream size                              : 29.9 MiB (0%)
  216. Title                                    : Czech-PGS
  217. Language                                 : Czech
  218. Default                                  : No
  219. Forced                                   : No

  220. Text #12
  221. ID                                       : 15
  222. Format                                   : PGS
  223. Muxing mode                              : zlib
  224. Codec ID                                 : S_HDMV/PGS
  225. Codec ID/Info                            : Picture based subtitle format used on BDs/HD-DVDs
  226. Duration                                 : 1 h 38 min
  227. Bit rate                                 : 37.7 kb/s
  228. Count of elements                        : 3233
  229. Stream size                              : 26.5 MiB (0%)
  230. Title                                    : French-PGS
  231. Language                                 : French
  232. Default                                  : No
  233. Forced                                   : No

  234. Text #13
  235. ID                                       : 16
  236. Format                                   : PGS
  237. Muxing mode                              : zlib
  238. Codec ID                                 : S_HDMV/PGS
  239. Codec ID/Info                            : Picture based subtitle format used on BDs/HD-DVDs
  240. Duration                                 : 1 h 38 min
  241. Bit rate                                 : 46.2 kb/s
  242. Count of elements                        : 2932
  243. Stream size                              : 32.5 MiB (0%)
  244. Title                                    : Greek-PGS
  245. Language                                 : Greek
  246. Default                                  : No
  247. Forced                                   : No

  248. Text #14
  249. ID                                       : 17
  250. Format                                   : PGS
  251. Muxing mode                              : zlib
  252. Codec ID                                 : S_HDMV/PGS
  253. Codec ID/Info                            : Picture based subtitle format used on BDs/HD-DVDs
  254. Duration                                 : 1 h 38 min
  255. Bit rate                                 : 40.7 kb/s
  256. Count of elements                        : 2918
  257. Stream size                              : 28.6 MiB (0%)
  258. Title                                    : Hungarian-PGS
  259. Language                                 : Hungarian
  260. Default                                  : No
  261. Forced                                   : No

  262. Text #15
  263. ID                                       : 18
  264. Format                                   : PGS
  265. Muxing mode                              : zlib
  266. Codec ID                                 : S_HDMV/PGS
  267. Codec ID/Info                            : Picture based subtitle format used on BDs/HD-DVDs
  268. Duration                                 : 1 h 38 min
  269. Bit rate                                 : 45.6 kb/s
  270. Count of elements                        : 3345
  271. Stream size                              : 32.1 MiB (0%)
  272. Title                                    : Indonesian-PGS
  273. Language                                 : Indonesian
  274. Default                                  : No
  275. Forced                                   : No

  276. Text #16
  277. ID                                       : 19
  278. Format                                   : PGS
  279. Muxing mode                              : zlib
  280. Codec ID                                 : S_HDMV/PGS
  281. Codec ID/Info                            : Picture based subtitle format used on BDs/HD-DVDs
  282. Duration                                 : 1 h 38 min
  283. Bit rate                                 : 34.6 kb/s
  284. Count of elements                        : 3504
  285. Stream size                              : 24.3 MiB (0%)
  286. Title                                    : Korean-PGS
  287. Language                                 : Korean
  288. Default                                  : No
  289. Forced                                   : No

  290. Text #17
  291. ID                                       : 20
  292. Format                                   : PGS
  293. Muxing mode                              : zlib
  294. Codec ID                                 : S_HDMV/PGS
  295. Codec ID/Info                            : Picture based subtitle format used on BDs/HD-DVDs
  296. Duration                                 : 1 h 38 min
  297. Bit rate                                 : 53.4 kb/s
  298. Count of elements                        : 3010
  299. Stream size                              : 37.5 MiB (0%)
  300. Title                                    : Malay-PGS
  301. Language                                 : Malay
  302. Default                                  : No
  303. Forced                                   : No

  304. Text #18
  305. ID                                       : 21
  306. Format                                   : PGS
  307. Muxing mode                              : zlib
  308. Codec ID                                 : S_HDMV/PGS
  309. Codec ID/Info                            : Picture based subtitle format used on BDs/HD-DVDs
  310. Duration                                 : 1 h 38 min
  311. Bit rate                                 : 37.2 kb/s
  312. Count of elements                        : 3308
  313. Stream size                              : 26.2 MiB (0%)
  314. Title                                    : Polish-PGS
  315. Language                                 : Polish
  316. Default                                  : No
  317. Forced                                   : No

  318. Text #19
  319. ID                                       : 22
  320. Format                                   : PGS
  321. Muxing mode                              : zlib
  322. Codec ID                                 : S_HDMV/PGS
  323. Codec ID/Info                            : Picture based subtitle format used on BDs/HD-DVDs
  324. Duration                                 : 1 h 38 min
  325. Bit rate                                 : 42.4 kb/s
  326. Count of elements                        : 3356
  327. Stream size                              : 29.8 MiB (0%)
  328. Title                                    : Portuguese-PGS
  329. Language                                 : Portuguese
  330. Default                                  : No
  331. Forced                                   : No

  332. Text #20
  333. ID                                       : 23
  334. Format                                   : PGS
  335. Muxing mode                              : zlib
  336. Codec ID                                 : S_HDMV/PGS
  337. Codec ID/Info                            : Picture based subtitle format used on BDs/HD-DVDs
  338. Duration                                 : 1 h 38 min
  339. Bit rate                                 : 45.7 kb/s
  340. Count of elements                        : 3218
  341. Stream size                              : 32.1 MiB (0%)
  342. Title                                    : Portuguese-PGS
  343. Language                                 : Portuguese
  344. Default                                  : No
  345. Forced                                   : No

  346. Text #21
  347. ID                                       : 24
  348. Format                                   : PGS
  349. Muxing mode                              : zlib
  350. Codec ID                                 : S_HDMV/PGS
  351. Codec ID/Info                            : Picture based subtitle format used on BDs/HD-DVDs
  352. Duration                                 : 1 h 38 min
  353. Bit rate                                 : 42.9 kb/s
  354. Count of elements                        : 3129
  355. Stream size                              : 30.2 MiB (0%)
  356. Title                                    : Romanian-PGS
  357. Language                                 : Romanian
  358. Default                                  : No
  359. Forced                                   : No

  360. Text #22
  361. ID                                       : 25
  362. Format                                   : PGS
  363. Muxing mode                              : zlib
  364. Codec ID                                 : S_HDMV/PGS
  365. Codec ID/Info                            : Picture based subtitle format used on BDs/HD-DVDs
  366. Duration                                 : 1 h 38 min
  367. Bit rate                                 : 33.7 kb/s
  368. Count of elements                        : 3464
  369. Stream size                              : 23.7 MiB (0%)
  370. Title                                    : Slovak-PGS
  371. Language                                 : Slovak
  372. Default                                  : No
  373. Forced                                   : No

  374. Text #23
  375. ID                                       : 26
  376. Format                                   : PGS
  377. Muxing mode                              : zlib
  378. Codec ID                                 : S_HDMV/PGS
  379. Codec ID/Info                            : Picture based subtitle format used on BDs/HD-DVDs
  380. Duration                                 : 1 h 38 min
  381. Bit rate                                 : 35.9 kb/s
  382. Count of elements                        : 2682
  383. Stream size                              : 25.2 MiB (0%)
  384. Title                                    : Slovenian-PGS
  385. Language                                 : Slovenian
  386. Default                                  : No
  387. Forced                                   : No

  388. Text #24
  389. ID                                       : 27
  390. Format                                   : PGS
  391. Muxing mode                              : zlib
  392. Codec ID                                 : S_HDMV/PGS
  393. Codec ID/Info                            : Picture based subtitle format used on BDs/HD-DVDs
  394. Duration                                 : 1 h 38 min
  395. Bit rate                                 : 43.3 kb/s
  396. Count of elements                        : 3380
  397. Stream size                              : 30.4 MiB (0%)
  398. Title                                    : Spanish-PGS
  399. Language                                 : Spanish
  400. Default                                  : No
  401. Forced                                   : No

  402. Text #25
  403. ID                                       : 28
  404. Format                                   : PGS
  405. Muxing mode                              : zlib
  406. Codec ID                                 : S_HDMV/PGS
  407. Codec ID/Info                            : Picture based subtitle format used on BDs/HD-DVDs
  408. Duration                                 : 1 h 38 min
  409. Bit rate                                 : 43.8 kb/s
  410. Count of elements                        : 3343
  411. Stream size                              : 30.8 MiB (0%)
  412. Title                                    : Spanish-PGS
  413. Language                                 : Spanish
  414. Default                                  : No
  415. Forced                                   : No

  416. Text #26
  417. ID                                       : 29
  418. Format                                   : PGS
  419. Muxing mode                              : zlib
  420. Codec ID                                 : S_HDMV/PGS
  421. Codec ID/Info                            : Picture based subtitle format used on BDs/HD-DVDs
  422. Duration                                 : 1 h 38 min
  423. Bit rate                                 : 33.7 kb/s
  424. Count of elements                        : 3488
  425. Stream size                              : 23.7 MiB (0%)
  426. Title                                    : Thai-PGS
  427. Language                                 : Thai
  428. Default                                  : No
  429. Forced                                   : No

  430. Menu
  431. 00:00:00.000                             : en:Chapter 01
  432. 00:05:01.134                             : en:Chapter 02
  433. 00:11:08.000                             : en:Chapter 03
  434. 00:15:24.173                             : en:Chapter 04
  435. 00:21:16.191                             : en:Chapter 05
  436. 00:29:15.545                             : en:Chapter 06
  437. 00:36:55.421                             : en:Chapter 07
  438. 00:44:03.015                             : en:Chapter 08
  439. 00:50:12.968                             : en:Chapter 09
  440. 00:57:52.510                             : en:Chapter 10
  441. 01:03:51.869                             : en:Chapter 11
  442. 01:06:50.047                             : en:Chapter 12
  443. 01:10:12.124                             : en:Chapter 13
  444. 01:15:40.494                             : en:Chapter 14
  445. 01:23:45.311                             : en:Chapter 15
  446. 01:29:48.216                             : en:Chapter 16
复制代码

丧尸乐园2 Zombieland.Double.Tap.2019.2160p.BluRay.x264.8bit.SDR.DTS-X.7.1-SWTYBLZ 21.64GB-2.png 丧尸乐园2 Zombieland.Double.Tap.2019.2160p.BluRay.x264.8bit.SDR.DTS-X.7.1-SWTYBLZ 21.64GB-3.png 丧尸乐园2 Zombieland.Double.Tap.2019.2160p.BluRay.x264.8bit.SDR.DTS-X.7.1-SWTYBLZ 21.64GB-4.png 丧尸乐园2 Zombieland.Double.Tap.2019.2160p.BluRay.x264.8bit.SDR.DTS-X.7.1-SWTYBLZ 21.64GB-5.png 丧尸乐园2 Zombieland.Double.Tap.2019.2160p.BluRay.x264.8bit.SDR.DTS-X.7.1-SWTYBLZ 21.64GB-6.png 丧尸乐园2 Zombieland.Double.Tap.2019.2160p.BluRay.x264.8bit.SDR.DTS-X.7.1-SWTYBLZ 21.64GB-7.png 丧尸乐园2 Zombieland.Double.Tap.2019.2160p.BluRay.x264.8bit.SDR.DTS-X.7.1-SWTYBLZ 21.64GB-8.png







本帖隐藏的下载地址需要VIP会员才可阅读,您需要升级才可阅读,点击这里升级VIP
回复

使用道具 举报

级别:初级观众 Lv.1

注册时间
2020-1-12
最后登录
2020-4-9
听众
3
收听
0
主题
0
蓝光币
10 枚
贡献
0 点
发表于 2020-1-12 09:17:56 | 显示全部楼层
thanks a lot
回复

使用道具 举报

级别:群众演员 Lv.3

注册时间
2019-12-21
最后登录
2020-7-19
听众
2
收听
0
主题
0
蓝光币
195 枚
贡献
0 点
发表于 2020-1-12 10:43:43 | 显示全部楼层

楼主太厉害了!楼主,电影应该很好看我觉得中国高清电影网真是个好地方!
回复

使用道具 举报

级别:初级观众 Lv.1

注册时间
2018-10-17
最后登录
2020-6-16
听众
10
收听
0
主题
0
蓝光币
2 枚
贡献
0 点
发表于 2020-1-12 21:16:41 | 显示全部楼层

这东西我收了!谢谢楼主!中国高清电影网真好!
回复

使用道具 举报

级别:初级观众 Lv.1

注册时间
2020-1-23
最后登录
2020-7-22
听众
3
收听
0
主题
0
蓝光币
24 枚
贡献
0 点
QQ
发表于 2020-1-27 16:36:17 | 显示全部楼层
这东西我收了!谢谢楼主!中国高清电影网真好!
回复

使用道具 举报

级别:初级观众 Lv.1

注册时间
2018-12-11
最后登录
2020-1-28
听众
10
收听
0
主题
0
蓝光币
4 枚
贡献
0 点
发表于 2020-1-28 17:13:07 | 显示全部楼层
非常感谢,谢谢分享
回复

使用道具 举报

 成长值: 2740

级别:尊贵的会员

注册时间
2020-1-28
最后登录
2020-7-19
听众
2
收听
0
主题
0
蓝光币
53 枚
贡献
0 点
发表于 2020-1-28 19:48:43 | 显示全部楼层

论坛不能没有像楼主这样的人才啊!我会一直支持中国高清电影网
回复

使用道具 举报

级别:群众演员 Lv.3

注册时间
2020-1-10
最后登录
2020-8-2
听众
4
收听
0
主题
0
蓝光币
193 枚
贡献
0 点
发表于 2020-2-4 20:27:07 | 显示全部楼层
论坛不能没有像楼主这样的人才啊!我会一直支持中国高清电影网。
回复

使用道具 举报

 成长值: 2560

级别:尊贵的会员

注册时间
2020-3-7
最后登录
2020-7-26
听众
5
收听
0
主题
0
蓝光币
0 枚
贡献
0 点
发表于 2020-3-7 16:47:35 | 显示全部楼层

这个帖子不回对不起自己!我想我是一天也不能离开中国高清电影网
回复

使用道具 举报

懒得打字嘛,点击右侧快捷回复 【右侧内容,后台自定义】
您需要登录后才可以回帖 登录 | 立即注册

本版积分规则

Archiver|手机版|小黑屋| 中国高清网 ( ICP备17007870号-2 ) |网站地图 

GMT+8, 2020-8-7 12:14 , Processed in 0.274796 second(s), 41 queries .

Powered by HDchina X3.4

Copyright 2017-2019©HDchina.All right reserved

返回顶部 联系我们