查看: 29|回复: 1

[惊悚片] 房屋出租 Room.for.Rent.2019.720p.AMZN.WEBRip.DDP5.1.x264-iKA 2.32GB

[复制链接]

 成长值: 3810

级别:资源管理组

注册时间
2017-10-20
最后登录
2020-1-19
听众
1
收听
0
主题
90464
蓝光币
82874 枚
贡献
14826 点
发表于 2019-12-11 12:04:28 | 显示全部楼层 |阅读模式
衡宇出租 Room.for.Rent.2019.720p.AMZN.WEBRip.DDP5.1.x264-iKA 2.32GB-1.png

译  名 衡宇出租
片  名 Room for Rent
年  代 2019
产  地 美国
类  别 惊悚
语  言 英语
上映日期 2019-05-07(美国)
IMDb评分  5.3/10 from 269 users
IMDb链接  http://www.imdb.com/title/tt6747818
豆瓣评分 5.3/10 from 89 users
豆瓣链接 https://movie.douban.com/subject/27072822/
导  演 Tommy Stovall
编  剧 Stuart Flack
主  演 林·沙烨 Lin Shaye
      Oliver Rayon
      Valeska Miller


标  签 惊悚 | 美国 | 可骇 | 独居 | 电影 | 林·沙烨 | 恋爱 | 美国电影

简  介  

  Lonely widow Joyce rents out a room in her house and becomes dangerously obsessed with one of her guests.

  1. Video
  2. ID                                       : 1
  3. Format                                   : AVC
  4. Format/Info                              : Advanced Video Codec
  5. Format profile                           : High@L4
  6. Format settings                          : CABAC / 4 Ref Frames
  7. Format settings, CABAC                   : Yes
  8. Format settings, Reference frames        : 4 frames
  9. Codec ID                                 : V_MPEG4/ISO/AVC
  10. Duration                                 : 1 h 21 min
  11. Bit rate mode                            : Constant
  12. Bit rate                                 : 3 431 kb/s
  13. Nominal bit rate                         : 6 000 kb/s
  14. Width                                    : 1 280 pixels
  15. Height                                   : 720 pixels
  16. Display aspect ratio                     : 16:9
  17. Frame rate mode                          : Constant
  18. Frame rate                               : 23.976 (24000/1001) FPS
  19. Color space                              : YUV
  20. Chroma subsampling                       : 4:2:0
  21. Bit depth                                : 8 bits
  22. Scan type                                : Progressive
  23. Bits/(Pixel*Frame)                       : 0.155
  24. Stream size                              : 1.96 GiB (84%)
  25. Default                                  : Yes
  26. Forced                                   : No
  27. Color range                              : Limited
  28. Color primaries                          : BT.709
  29. Transfer characteristics                 : BT.709
  30. Matrix coefficients                      : BT.709

  31. Audio
  32. ID                                       : 2
  33. Format                                   : E-AC-3
  34. Format/Info                              : Enhanced AC-3
  35. Commercial name                          : Dolby Digital Plus
  36. Codec ID                                 : A_EAC3
  37. Duration                                 : 1 h 21 min
  38. Bit rate mode                            : Constant
  39. Bit rate                                 : 640 kb/s
  40. Channel(s)                               : 6 channels
  41. Channel layout                           : L R C LFE Ls Rs
  42. Sampling rate                            : 48.0 kHz
  43. Frame rate                               : 31.250 FPS (1536 SPF)
  44. Compression mode                         : Lossy
  45. Stream size                              : 374 MiB (16%)
  46. Language                                 : English
  47. Service kind                             : Complete Main
  48. Default                                  : Yes
  49. Forced                                   : No

  50. Text
  51. ID                                       : 3
  52. Format                                   : UTF-8
  53. Codec ID                                 : S_TEXT/UTF8
  54. Codec ID/Info                            : UTF-8 Plain Text
  55. Duration                                 : 1 h 18 min
  56. Bit rate                                 : 55 b/s
  57. Count of elements                        : 1185
  58. Stream size                              : 32.2 KiB (0%)
  59. Language                                 : English
  60. Default                                  : No
  61. Forced                                   : No
复制代码

衡宇出租 Room.for.Rent.2019.720p.AMZN.WEBRip.DDP5.1.x264-iKA 2.32GB-2.png 衡宇出租 Room.for.Rent.2019.720p.AMZN.WEBRip.DDP5.1.x264-iKA 2.32GB-3.png 衡宇出租 Room.for.Rent.2019.720p.AMZN.WEBRip.DDP5.1.x264-iKA 2.32GB-4.png







VIP会员免费任意下载本站所有资源!---点击开通
回复

使用道具 举报

级别:一线明星 Lv.8

注册时间
2019-4-24
最后登录
2020-1-18
听众
14
收听
0
主题
0
蓝光币
257 枚
贡献
0 点
发表于 2019-12-18 15:31:27 | 显示全部楼层
楼主发贴辛苦了,谢谢楼主分享!我觉得中国高清电影网是注册对了!
VIP会员免费任意下载本站所有资源!---点击开通
回复

使用道具 举报

懒得打字嘛,点击右侧快捷回复 【右侧内容,后台自定义】
您需要登录后才可以回帖 登录 | 立即注册

本版积分规则

Archiver|手机版|小黑屋| 中国高清网 |网站地图

GMT+8, 2020-1-19 10:32 , Processed in 0.226010 second(s), 37 queries .

Powered by HDchina X3.4

Copyright 2017-2019©HDchina.All right reserved

返回顶部 联系我们