查看: 942|回复: 15

[REMUX.HEVC] 第一滴血5:最后的血 Rambo.Last.Blood.2019.2160p.BluRay.REMUX.HEVC.DTS-HD.MA.TrueHD.7.1.Atmos-FGT 41.13GB

[复制链接]

 成长值: 3810

级别:资源管理组

注册时间
2017-10-20
最后登录
2020-1-19
听众
1
收听
0
主题
90464
蓝光币
82872 枚
贡献
14826 点
发表于 2019-12-11 12:03:07 | 显示全部楼层 |阅读模式
第一滴血5:最初的血 Rambo.Last.Blood.2019.2160p.BluRay.REMUX.HEVC.DTS-HD.MA.TrueHD.7.1.Atmos-FGT 41.13GB-1.png

译  名 第一滴血5:最初的血 / Rambo 5 / Rambo 5: Last Blood / Rambo V / Rambo V: Last Blood / 兰博5:最初一滴血 / 第一滴血5 / 第一滴血:最初一战 / 第一滴血:终极血战(港) / 蓝波:最初一滴血(台)
片  名 Rambo: Last Blood
年  代 2019
产  地 美国
类  别 行动 / 惊悚 / 冒险
语  言 英语
上映日期 2019-09-20(美国)
IMDb评分  6.7/10 from 23992 users
IMDb链接  https://www.imdb.com/title/tt1206885
豆瓣评分 7.6/10 from 1217 users
豆瓣链接 https://movie.douban.com/subject/10546436/
片  长 89分钟
导  演 阿德里安·格鲁伯格 Adrian Grunberg
编  剧 马修·西鲁尼克 Matthew Cirulnick / 大卫·莫瑞尔 David Morrell / 西尔维斯特·史泰龙 Sylvester Stallone
主  演 西尔维斯特·史泰龙 Sylvester Stallone
       帕斯·贝加 Paz Vega
       路易·曼迪勒 Louis Mandylor
       奥斯卡·贾恩那达 óscar Jaenada
       维特·蒙雷尔 Yvette Monreal
       华金·科西奥 Joaquín Cosio
       杰西卡·马德森 Jessica Madsen
       艾德里安娜·巴拉扎 Adriana Barraza
       塞尔吉奥·佩里斯-门切塔 Sergio Peris-Mencheta
       阿塔纳斯·斯雷布雷夫 Atanas Srebrev
       尼克·威特曼 Nick Wittman


标  签 行动 | 硬汉 | 美国 | 典范 | 暴力 | 战争 | 血腥 | 2019

简  介  

  西尔维斯特·史泰龙回归[第一滴血5],并有望执导。除主演外,据悉史泰龙将操刀剧本,故事围绕兰博为救援朋友之女与墨西哥毒枭展开殊死奋斗展开。制片艾威·勒纳([敢死队]系列)。该系列首部于1982年上映,2008年史泰龙曾自导自演[第一滴血4]。[第一滴血5]将在本届戛纳电影节预售,9月开拍。
  1. Video #1
  2. ID                                       : 1
  3. Format                                   : HEVC
  4. Format/Info                              : High Efficiency Video Coding
  5. Format profile                           : Main High@L4@High
  6. HDR format                               : SMPTE ST 2086, HDR10 compatible
  7. Codec ID                                 : V_MPEGH/ISO/HEVC
  8. Duration                                 : 1 h 29 min
  9. Bit rate                                 : 50.6 Mb/s
  10. Width                                    : 3 840 pixels
  11. Height                                   : 2 160 pixels
  12. Display aspect ratio                     : 16:9
  13. Frame rate mode                          : Constant
  14. Frame rate                               : 23.976 (24000/1001) FPS
  15. Color space                              : YUV
  16. Chroma subsampling                       : 4:2:0 (Type 2)
  17. Bit depth                                : 10 bits
  18. Bits/(Pixel*Frame)                       : 0.255
  19. Stream size                              : 31.6 GiB (77%)
  20. Title                                    : Rambo.Last.Blood.2019.2160p.BluRay.REMUX.HEVC.DTS-HD.MA.TrueHD.7.1.Atmos-FGT
  21. Language                                 : English
  22. Default                                  : Yes
  23. Forced                                   : No
  24. Color range                              : Limited
  25. Color primaries                          : BT.2020
  26. Transfer characteristics                 : PQ
  27. Matrix coefficients                      : BT.2020 non-constant
  28. Mastering display color primaries        : Display P3
  29. Mastering display luminance              : min: 0.0010 cd/m2, max: 1000 cd/m2
  30. Maximum Content Light Level              : 1000 cd/m2
  31. Maximum Frame-Average Light Level        : 475 cd/m2

  32. Video #2
  33. ID                                       : 2
  34. Format                                   : HEVC
  35. Format/Info                              : High Efficiency Video Coding
  36. Format profile                           : Main High@L4@High
  37. HDR format                               : SMPTE ST 2086, HDR10 compatible
  38. Codec ID                                 : V_MPEGH/ISO/HEVC
  39. Duration                                 : 1 h 29 min
  40. Bit rate                                 : 5 881 kb/s
  41. Width                                    : 1 920 pixels
  42. Height                                   : 1 080 pixels
  43. Display aspect ratio                     : 16:9
  44. Frame rate mode                          : Constant
  45. Frame rate                               : 23.976 (24000/1001) FPS
  46. Color space                              : YUV
  47. Chroma subsampling                       : 4:2:0 (Type 2)
  48. Bit depth                                : 10 bits
  49. Bits/(Pixel*Frame)                       : 0.118
  50. Stream size                              : 3.68 GiB (9%)
  51. Title                                    : Rambo.Last.Blood.2019.2160p.BluRay.REMUX.HEVC.DTS-HD.MA.TrueHD.7.1.Atmos-FGT
  52. Language                                 : English
  53. Default                                  : No
  54. Forced                                   : No
  55. Color range                              : Limited
  56. Color primaries                          : BT.2020
  57. Transfer characteristics                 : PQ
  58. Matrix coefficients                      : BT.2020 non-constant
  59. Mastering display color primaries        : Display P3
  60. Mastering display luminance              : min: 0.0010 cd/m2, max: 1000 cd/m2

  61. Audio #1
  62. ID                                       : 3
  63. Format                                   : MLP FBA 16-ch
  64. Format/Info                              : Meridian Lossless Packing FBA with 16-channel presentation
  65. Commercial name                          : Dolby TrueHD with Dolby Atmos
  66. Codec ID                                 : A_TRUEHD
  67. Duration                                 : 1 h 29 min
  68. Bit rate mode                            : Variable
  69. Bit rate                                 : 3 100 kb/s
  70. Maximum bit rate                         : 4 866 kb/s
  71. Channel(s)                               : 8 channels
  72. Channel layout                           : L R C LFE Ls Rs Lb Rb
  73. Sampling rate                            : 48.0 kHz
  74. Frame rate                               : 1 200.000 FPS (40 SPF)
  75. Compression mode                         : Lossless
  76. Stream size                              : 1.94 GiB (5%)
  77. Title                                    : Rambo.Last.Blood.2019.2160p.BluRay.REMUX.HEVC.DTS-HD.MA.TrueHD.7.1.Atmos-FGT
  78. Language                                 : English
  79. Default                                  : Yes
  80. Forced                                   : No
  81. Number of dynamic objects                : 11
  82. Bed channel count                        : 1 channel
  83. Bed channel configuration                : LFE

  84. Audio #2
  85. ID                                       : 4
  86. Format                                   : DTS XLL
  87. Format/Info                              : Digital Theater Systems
  88. Commercial name                          : DTS-HD Master Audio
  89. Codec ID                                 : A_DTS
  90. Duration                                 : 1 h 29 min
  91. Bit rate mode                            : Variable
  92. Bit rate                                 : 3 591 kb/s
  93. Channel(s)                               : 8 channels
  94. Channel layout                           : C L R LFE Lb Rb Lss Rss
  95. Sampling rate                            : 48.0 kHz
  96. Frame rate                               : 93.750 FPS (512 SPF)
  97. Bit depth                                : 24 bits
  98. Compression mode                         : Lossless
  99. Stream size                              : 2.24 GiB (5%)
  100. Title                                    : Rambo.Last.Blood.2019.2160p.BluRay.REMUX.HEVC.DTS-HD.MA.TrueHD.7.1.Atmos-FGT
  101. Language                                 : English
  102. Default                                  : No
  103. Forced                                   : No

  104. Audio #3
  105. ID                                       : 5
  106. Format                                   : AC-3
  107. Format/Info                              : Audio Coding 3
  108. Commercial name                          : Dolby Digital
  109. Codec ID                                 : A_AC3
  110. Duration                                 : 1 h 29 min
  111. Bit rate mode                            : Constant
  112. Bit rate                                 : 640 kb/s
  113. Channel(s)                               : 6 channels
  114. Channel layout                           : L R C LFE Ls Rs
  115. Sampling rate                            : 48.0 kHz
  116. Frame rate                               : 31.250 FPS (1536 SPF)
  117. Bit depth                                : 16 bits
  118. Compression mode                         : Lossy
  119. Stream size                              : 410 MiB (1%)
  120. Title                                    : Rambo.Last.Blood.2019.2160p.BluRay.REMUX.HEVC.DTS-HD.MA.TrueHD.7.1.Atmos-FGT
  121. Language                                 : English
  122. Service kind                             : Complete Main
  123. Default                                  : No
  124. Forced                                   : No

  125. Audio #4
  126. ID                                       : 6
  127. Format                                   : AC-3
  128. Format/Info                              : Audio Coding 3
  129. Commercial name                          : Dolby Digital
  130. Codec ID                                 : A_AC3
  131. Duration                                 : 1 h 29 min
  132. Bit rate mode                            : Constant
  133. Bit rate                                 : 320 kb/s
  134. Channel(s)                               : 2 channels
  135. Channel layout                           : L R
  136. Sampling rate                            : 48.0 kHz
  137. Frame rate                               : 31.250 FPS (1536 SPF)
  138. Bit depth                                : 16 bits
  139. Compression mode                         : Lossy
  140. Stream size                              : 205 MiB (0%)
  141. Title                                    : Rambo.Last.Blood.2019.2160p.BluRay.REMUX.HEVC.DTS-HD.MA.TrueHD.7.1.Atmos-FGT
  142. Language                                 : English
  143. Service kind                             : Complete Main
  144. Default                                  : No
  145. Forced                                   : No

  146. Audio #5
  147. ID                                       : 7
  148. Format                                   : AC-3
  149. Format/Info                              : Audio Coding 3
  150. Commercial name                          : Dolby Digital
  151. Codec ID                                 : A_AC3
  152. Duration                                 : 1 h 29 min
  153. Bit rate mode                            : Constant
  154. Bit rate                                 : 448 kb/s
  155. Channel(s)                               : 6 channels
  156. Channel layout                           : L R C LFE Ls Rs
  157. Sampling rate                            : 48.0 kHz
  158. Frame rate                               : 31.250 FPS (1536 SPF)
  159. Bit depth                                : 16 bits
  160. Compression mode                         : Lossy
  161. Stream size                              : 287 MiB (1%)
  162. Title                                    : Rambo.Last.Blood.2019.2160p.BluRay.REMUX.HEVC.DTS-HD.MA.TrueHD.7.1.Atmos-FGT
  163. Language                                 : Spanish
  164. Service kind                             : Complete Main
  165. Default                                  : No
  166. Forced                                   : No

  167. Audio #6
  168. ID                                       : 8
  169. Format                                   : AC-3
  170. Format/Info                              : Audio Coding 3
  171. Commercial name                          : Dolby Digital
  172. Codec ID                                 : A_AC3
  173. Duration                                 : 1 h 29 min
  174. Bit rate mode                            : Constant
  175. Bit rate                                 : 448 kb/s
  176. Channel(s)                               : 6 channels
  177. Channel layout                           : L R C LFE Ls Rs
  178. Sampling rate                            : 48.0 kHz
  179. Frame rate                               : 31.250 FPS (1536 SPF)
  180. Bit depth                                : 16 bits
  181. Compression mode                         : Lossy
  182. Stream size                              : 287 MiB (1%)
  183. Title                                    : Rambo.Last.Blood.2019.2160p.BluRay.REMUX.HEVC.DTS-HD.MA.TrueHD.7.1.Atmos-FGT
  184. Language                                 : English
  185. Service kind                             : Complete Main
  186. Default                                  : No
  187. Forced                                   : No

  188. Audio #7
  189. ID                                       : 9
  190. Format                                   : AC-3
  191. Format/Info                              : Audio Coding 3
  192. Commercial name                          : Dolby Digital
  193. Codec ID                                 : A_AC3
  194. Duration                                 : 1 h 29 min
  195. Bit rate mode                            : Constant
  196. Bit rate                                 : 640 kb/s
  197. Channel(s)                               : 6 channels
  198. Channel layout                           : L R C LFE Ls Rs
  199. Sampling rate                            : 48.0 kHz
  200. Frame rate                               : 31.250 FPS (1536 SPF)
  201. Bit depth                                : 16 bits
  202. Compression mode                         : Lossy
  203. Stream size                              : 410 MiB (1%)
  204. Title                                    : Rambo.Last.Blood.2019.2160p.BluRay.REMUX.HEVC.DTS-HD.MA.TrueHD.7.1.Atmos-FGT
  205. Language                                 : French
  206. Service kind                             : Complete Main
  207. Default                                  : No
  208. Forced                                   : No

  209. Text #1
  210. ID                                       : 10
  211. Format                                   : UTF-8
  212. Codec ID                                 : S_TEXT/UTF8
  213. Codec ID/Info                            : UTF-8 Plain Text
  214. Duration                                 : 1 h 17 min
  215. Bit rate                                 : 26 b/s
  216. Count of elements                        : 563
  217. Stream size                              : 15.3 KiB (0%)
  218. Title                                    : English-SRT
  219. Language                                 : English
  220. Default                                  : Yes
  221. Forced                                   : No

  222. Text #2
  223. ID                                       : 11
  224. Format                                   : UTF-8
  225. Codec ID                                 : S_TEXT/UTF8
  226. Codec ID/Info                            : UTF-8 Plain Text
  227. Duration                                 : 1 h 18 min
  228. Bit rate                                 : 37 b/s
  229. Count of elements                        : 834
  230. Stream size                              : 21.2 KiB (0%)
  231. Title                                    : English-SDH-SRT
  232. Language                                 : English
  233. Default                                  : No
  234. Forced                                   : No

  235. Text #3
  236. ID                                       : 12
  237. Format                                   : PGS
  238. Muxing mode                              : zlib
  239. Codec ID                                 : S_HDMV/PGS
  240. Codec ID/Info                            : Picture based subtitle format used on BDs/HD-DVDs
  241. Duration                                 : 1 h 18 min
  242. Bit rate                                 : 26.9 kb/s
  243. Count of elements                        : 1680
  244. Stream size                              : 15.0 MiB (0%)
  245. Title                                    : English-PGS
  246. Language                                 : English
  247. Default                                  : No
  248. Forced                                   : No

  249. Text #4
  250. ID                                       : 13
  251. Format                                   : PGS
  252. Muxing mode                              : zlib
  253. Codec ID                                 : S_HDMV/PGS
  254. Codec ID/Info                            : Picture based subtitle format used on BDs/HD-DVDs
  255. Duration                                 : 1 h 20 min
  256. Bit rate                                 : 15.8 kb/s
  257. Count of elements                        : 1096
  258. Stream size                              : 9.12 MiB (0%)
  259. Title                                    : Spanish-PGS
  260. Language                                 : Spanish
  261. Default                                  : No
  262. Forced                                   : No

  263. Text #5
  264. ID                                       : 14
  265. Format                                   : PGS
  266. Muxing mode                              : zlib
  267. Codec ID                                 : S_HDMV/PGS
  268. Codec ID/Info                            : Picture based subtitle format used on BDs/HD-DVDs
  269. Duration                                 : 1 h 9 min
  270. Bit rate                                 : 118 b/s
  271. Count of elements                        : 6
  272. Stream size                              : 60.2 KiB (0%)
  273. Title                                    : Spanish-FORCED-PGS
  274. Language                                 : Spanish
  275. Default                                  : No
  276. Forced                                   : No

  277. Text #6
  278. ID                                       : 15
  279. Format                                   : PGS
  280. Muxing mode                              : zlib
  281. Codec ID                                 : S_HDMV/PGS
  282. Codec ID/Info                            : Picture based subtitle format used on BDs/HD-DVDs
  283. Duration                                 : 1 h 17 min
  284. Bit rate                                 : 26.9 kb/s
  285. Count of elements                        : 1414
  286. Stream size                              : 14.9 MiB (0%)
  287. Title                                    : French-PGS
  288. Language                                 : French
  289. Default                                  : No
  290. Forced                                   : No

  291. Menu
  292. 00:00:00.000                             : en:Chapter 01
  293. 00:04:50.081                             : en:Chapter 02
  294. 00:10:59.158                             : en:Chapter 03
  295. 00:14:35.416                             : en:Chapter 04
  296. 00:22:38.732                             : en:Chapter 05
  297. 00:25:11.384                             : en:Chapter 06
  298. 00:31:24.382                             : en:Chapter 07
  299. 00:36:11.961                             : en:Chapter 08
  300. 00:41:08.132                             : en:Chapter 09
  301. 00:46:37.878                             : en:Chapter 10
  302. 00:49:30.092                             : en:Chapter 11
  303. 00:55:04.926                             : en:Chapter 12
  304. 01:00:08.229                             : en:Chapter 13
  305. 01:05:57.495                             : en:Chapter 14
  306. 01:12:06.155                             : en:Chapter 15
  307. 01:17:47.245                             : en:Chapter 16
复制代码

第一滴血5:最初的血 Rambo.Last.Blood.2019.2160p.BluRay.REMUX.HEVC.DTS-HD.MA.TrueHD.7.1.Atmos-FGT 41.13GB-2.png 第一滴血5:最初的血 Rambo.Last.Blood.2019.2160p.BluRay.REMUX.HEVC.DTS-HD.MA.TrueHD.7.1.Atmos-FGT 41.13GB-3.png 第一滴血5:最初的血 Rambo.Last.Blood.2019.2160p.BluRay.REMUX.HEVC.DTS-HD.MA.TrueHD.7.1.Atmos-FGT 41.13GB-4.png







本帖隐藏的下载地址需要VIP会员才可阅读,您需要升级才可阅读,点击这里升级VIP
VIP会员免费任意下载本站所有资源!---点击开通
回复

使用道具 举报

级别:初级观众 Lv.1

注册时间
2019-12-12
最后登录
2019-12-12
听众
1
收听
0
主题
0
蓝光币
2 枚
贡献
0 点
发表于 2019-12-12 11:38:14 | 显示全部楼层

楼主太厉害了!楼主,电影应该很好看我觉得中国高清电影网真是个好地方!
VIP会员免费任意下载本站所有资源!---点击开通
回复

使用道具 举报

 成长值: 760

级别:尊贵的会员

注册时间
2019-12-6
最后登录
2020-1-17
听众
1
收听
0
主题
0
蓝光币
9 枚
贡献
0 点
QQ
发表于 2019-12-12 11:49:00 | 显示全部楼层
这个系列的绝唱 了
VIP会员免费任意下载本站所有资源!---点击开通
回复

使用道具 举报

级别:普通观众 Lv.2

注册时间
2019-3-21
最后登录
2020-1-5
听众
9
收听
0
主题
0
蓝光币
1 枚
贡献
0 点
发表于 2019-12-12 11:58:54 | 显示全部楼层

这个帖子不回对不起自己!我想我是一天也不能离开中国高清电影网
VIP会员免费任意下载本站所有资源!---点击开通
回复

使用道具 举报

级别:普通观众 Lv.2

注册时间
2019-3-21
最后登录
2020-1-5
听众
9
收听
0
主题
0
蓝光币
1 枚
贡献
0 点
发表于 2019-12-12 12:02:10 | 显示全部楼层

这个帖子不回对不起自己!我想我是一天也不能离开中国高清电影网
VIP会员免费任意下载本站所有资源!---点击开通
回复

使用道具 举报

级别:群众演员 Lv.3

注册时间
2019-11-29
最后登录
2020-1-19
听众
1
收听
0
主题
0
蓝光币
128 枚
贡献
0 点
发表于 2019-12-13 12:01:33 | 显示全部楼层
thanks  Adrian Grunberg
VIP会员免费任意下载本站所有资源!---点击开通
回复

使用道具 举报

级别:群众演员 Lv.3

注册时间
2019-11-29
最后登录
2020-1-19
听众
1
收听
0
主题
0
蓝光币
128 枚
贡献
0 点
发表于 2019-12-18 08:20:52 | 显示全部楼层
thanks Adrian Grunberg
VIP会员免费任意下载本站所有资源!---点击开通
回复

使用道具 举报

级别:一线明星 Lv.8

注册时间
2019-4-24
最后登录
2020-1-18
听众
14
收听
0
主题
0
蓝光币
257 枚
贡献
0 点
发表于 2019-12-18 15:33:35 | 显示全部楼层
楼主发贴辛苦了,谢谢楼主分享!我觉得中国高清电影网是注册对了!
VIP会员免费任意下载本站所有资源!---点击开通
回复

使用道具 举报

级别:初级观众 Lv.1

注册时间
2019-4-3
最后登录
2020-1-17
听众
7
收听
0
主题
0
蓝光币
3 枚
贡献
0 点
发表于 2019-12-18 18:27:12 | 显示全部楼层
谢谢楼主分享
VIP会员免费任意下载本站所有资源!---点击开通
回复

使用道具 举报

级别:初级观众 Lv.1

注册时间
2019-12-22
最后登录
2019-12-22
听众
1
收听
0
主题
0
蓝光币
2 枚
贡献
0 点
发表于 2019-12-22 16:55:42 | 显示全部楼层
史泰龙老了。廉颇老矣尚能饭否?
VIP会员免费任意下载本站所有资源!---点击开通
回复

使用道具 举报

懒得打字嘛,点击右侧快捷回复 【右侧内容,后台自定义】
您需要登录后才可以回帖 登录 | 立即注册

本版积分规则

Archiver|手机版|小黑屋| 中国高清网 |网站地图

GMT+8, 2020-1-19 10:21 , Processed in 0.360890 second(s), 38 queries .

Powered by HDchina X3.4

Copyright 2017-2019©HDchina.All right reserved

返回顶部 联系我们