查看: 200|回复: 1

[动画片] 雪人奇缘 Abominable.2019.1080p.BluRay.REMUX.AVC.DTS-HD.MA.TrueHD.7.1.Atmos-FGT 25.53GB

[复制链接]

 成长值: 6410

级别:资源管理组

注册时间
2017-10-20
最后登录
2020-8-7
听众
1
收听
0
主题
100960
蓝光币
179200 枚
贡献
21715 点
发表于 2019-12-11 12:00:14 | 显示全部楼层 |阅读模式
雪人奇缘 Abominable.2019.1080p.BluRay.REMUX.AVC.DTS-HD.MA.TrueHD.7.1.Atmos-FGT 25.53GB-1.png

译  名 雪人奇缘 / Everest / 坏坏萌雪怪(台) / 珠穆朗玛 / 长毛雪宝(港)
片  名 Abominable
年  代 2019
产  地 美国 / 中国大陆
类  别 笑剧 / 动画 / 冒险
语  言 英语
上映日期 2019-09-07(多伦多电影节) / 2019-09-27(美国) / 2019-10-01(中国大陆)
IMDb评分  7.1/10 from 6969 users
IMDb链接  https://www.imdb.com/title/tt6324278
豆瓣评分 7.6/10 from 12137 users
豆瓣链接 https://movie.douban.com/subject/26929010/
片  长 97分钟
导  演 吉尔·卡尔顿 Jill Culton / 托德·维尔德曼 Todd Wilderman
编  剧 吉尔·卡尔顿 Jill Culton
主  演 汪可盈 Chloe Bennet
       阿尔伯特·蔡 Albert Tsai
       艾迪·伊扎德 Eddie Izzard
       莎拉·保罗森 Sarah Paulson
       丹增·诺盖·特雷纳 Tenzing Norgay Trainor
       周采芹 Tsai Chin
       张子枫 Zifeng Zhang
       陈飞宇 Feiyu Chen
       何向东 Xiangdong He
       刘风 Feng Liu
       万茜 Qian Wan
       蔡明 Ming Cai


标  签 动画 | 东方梦工场 | 2019 | 温情 | 冒险 | 美国 | 笑剧 | 中国大陆

简  介  

  珠穆朗玛峰的雪人是传闻吗?不是!不但不是传闻,它还具有使人沉迷的魔力!少女小艺在天台上目击了雪人大毛行将被抓的惨况,决订婚身护送大毛回家,她的小伙伴阿俊和鹏鹏也加入了护送队伍。一路上冒险小分队路经了千岛湖、黄山、乐山大佛等著名的中国景点,雪人大毛为了躲避抓捕者,也逐一展现了自己奇异的魔力。庞大化的蒲公英,一秒变大的蓝莓,油菜花海浪,还有什么是雪人大毛的魔力做不到的?而抓捕者也早已在他们的目标地珠峰期待着冒险小分队步入早已设好的圈套…
  1. Video
  2. ID                                       : 1
  3. Format                                   : AVC
  4. Format/Info                              : Advanced Video Codec
  5. Format profile                           : High@L4
  6. Format settings                          : CABAC / 4 Ref Frames
  7. Format settings, CABAC                   : Yes
  8. Format settings, Reference frames        : 4 frames
  9. Codec ID                                 : V_MPEG4/ISO/AVC
  10. Duration                                 : 1 h 37 min
  11. Bit rate mode                            : Variable
  12. Bit rate                                 : 26.0 Mb/s
  13. Maximum bit rate                         : 30.0 Mb/s
  14. Width                                    : 1 920 pixels
  15. Height                                   : 1 080 pixels
  16. Display aspect ratio                     : 16:9
  17. Frame rate mode                          : Constant
  18. Frame rate                               : 23.976 (24000/1001) FPS
  19. Color space                              : YUV
  20. Chroma subsampling                       : 4:2:0
  21. Bit depth                                : 8 bits
  22. Scan type                                : Progressive
  23. Bits/(Pixel*Frame)                       : 0.522
  24. Stream size                              : 17.6 GiB (69%)
  25. Title                                    : Abominable.2019.1080p.BluRay.REMUX.AVC.DTS-HD.MA.TrueHD.7.1.Atmos-FGT
  26. Language                                 : English
  27. Default                                  : No
  28. Forced                                   : No

  29. Audio #1
  30. ID                                       : 2
  31. Format                                   : MLP FBA 16-ch
  32. Format/Info                              : Meridian Lossless Packing FBA with 16-channel presentation
  33. Commercial name                          : Dolby TrueHD with Dolby Atmos
  34. Codec ID                                 : A_TRUEHD
  35. Duration                                 : 1 h 37 min
  36. Bit rate mode                            : Variable
  37. Bit rate                                 : 4 374 kb/s
  38. Maximum bit rate                         : 7 389 kb/s
  39. Channel(s)                               : 8 channels
  40. Channel layout                           : L R C LFE Ls Rs Lb Rb
  41. Sampling rate                            : 48.0 kHz
  42. Frame rate                               : 1 200.000 FPS (40 SPF)
  43. Compression mode                         : Lossless
  44. Stream size                              : 2.97 GiB (12%)
  45. Title                                    : Abominable.2019.1080p.BluRay.REMUX.AVC.DTS-HD.MA.TrueHD.7.1.Atmos-FGT
  46. Language                                 : English
  47. Default                                  : Yes
  48. Forced                                   : No
  49. Number of dynamic objects                : 11
  50. Bed channel count                        : 1 channel
  51. Bed channel configuration                : LFE

  52. Audio #2
  53. ID                                       : 3
  54. Format                                   : DTS XLL
  55. Format/Info                              : Digital Theater Systems
  56. Commercial name                          : DTS-HD Master Audio
  57. Codec ID                                 : A_DTS
  58. Duration                                 : 1 h 37 min
  59. Bit rate mode                            : Variable
  60. Bit rate                                 : 3 903 kb/s
  61. Channel(s)                               : 8 channels
  62. Channel layout                           : C L R LFE Lb Rb Lss Rss
  63. Sampling rate                            : 48.0 kHz
  64. Frame rate                               : 93.750 FPS (512 SPF)
  65. Bit depth                                : 24 bits
  66. Compression mode                         : Lossless
  67. Stream size                              : 2.65 GiB (10%)
  68. Title                                    : Abominable.2019.1080p.BluRay.REMUX.AVC.DTS-HD.MA.TrueHD.7.1.Atmos-FGT
  69. Language                                 : English
  70. Default                                  : No
  71. Forced                                   : No

  72. Audio #3
  73. ID                                       : 4
  74. Format                                   : AC-3
  75. Format/Info                              : Audio Coding 3
  76. Commercial name                          : Dolby Digital
  77. Codec ID                                 : A_AC3
  78. Duration                                 : 1 h 37 min
  79. Bit rate mode                            : Constant
  80. Bit rate                                 : 448 kb/s
  81. Channel(s)                               : 6 channels
  82. Channel layout                           : L R C LFE Ls Rs
  83. Sampling rate                            : 48.0 kHz
  84. Frame rate                               : 31.250 FPS (1536 SPF)
  85. Bit depth                                : 16 bits
  86. Compression mode                         : Lossy
  87. Stream size                              : 312 MiB (1%)
  88. Title                                    : Abominable.2019.1080p.BluRay.REMUX.AVC.DTS-HD.MA.TrueHD.7.1.Atmos-FGT
  89. Language                                 : English
  90. Service kind                             : Complete Main
  91. Default                                  : No
  92. Forced                                   : No

  93. Audio #4
  94. ID                                       : 5
  95. Format                                   : E-AC-3
  96. Format/Info                              : Enhanced AC-3
  97. Commercial name                          : Dolby Digital Plus
  98. Format profile                           : Blu-ray Disc
  99. Codec ID                                 : A_EAC3
  100. Duration                                 : 1 h 37 min
  101. Bit rate mode                            : Constant
  102. Bit rate                                 : 768 kb/s
  103. Channel(s)                               : 8 channels
  104. Channel layout                           : L R C LFE Ls Rs Lb Rb
  105. Sampling rate                            : 48.0 kHz
  106. Frame rate                               : 31.250 FPS (1536 SPF)
  107. Compression mode                         : Lossy
  108. Stream size                              : 534 MiB (2%)
  109. Title                                    : Abominable.2019.1080p.BluRay.REMUX.AVC.DTS-HD.MA.TrueHD.7.1.Atmos-FGT
  110. Language                                 : Spanish
  111. Service kind                             : Complete Main
  112. Default                                  : No
  113. Forced                                   : No

  114. Audio #5
  115. ID                                       : 6
  116. Format                                   : AC-3
  117. Format/Info                              : Audio Coding 3
  118. Commercial name                          : Dolby Digital
  119. Codec ID                                 : A_AC3
  120. Duration                                 : 1 h 37 min
  121. Bit rate mode                            : Constant
  122. Bit rate                                 : 448 kb/s
  123. Channel(s)                               : 6 channels
  124. Channel layout                           : L R C LFE Ls Rs
  125. Sampling rate                            : 48.0 kHz
  126. Frame rate                               : 31.250 FPS (1536 SPF)
  127. Bit depth                                : 16 bits
  128. Compression mode                         : Lossy
  129. Stream size                              : 312 MiB (1%)
  130. Title                                    : Abominable.2019.1080p.BluRay.REMUX.AVC.DTS-HD.MA.TrueHD.7.1.Atmos-FGT
  131. Language                                 : Spanish
  132. Service kind                             : Complete Main
  133. Default                                  : No
  134. Forced                                   : No

  135. Audio #6
  136. ID                                       : 7
  137. Format                                   : E-AC-3
  138. Format/Info                              : Enhanced AC-3
  139. Commercial name                          : Dolby Digital Plus
  140. Format profile                           : Blu-ray Disc
  141. Codec ID                                 : A_EAC3
  142. Duration                                 : 1 h 37 min
  143. Bit rate mode                            : Constant
  144. Bit rate                                 : 768 kb/s
  145. Channel(s)                               : 8 channels
  146. Channel layout                           : L R C LFE Ls Rs Lb Rb
  147. Sampling rate                            : 48.0 kHz
  148. Frame rate                               : 31.250 FPS (1536 SPF)
  149. Compression mode                         : Lossy
  150. Stream size                              : 534 MiB (2%)
  151. Title                                    : Abominable.2019.1080p.BluRay.REMUX.AVC.DTS-HD.MA.TrueHD.7.1.Atmos-FGT
  152. Language                                 : French
  153. Service kind                             : Complete Main
  154. Default                                  : No
  155. Forced                                   : No

  156. Audio #7
  157. ID                                       : 8
  158. Format                                   : AC-3
  159. Format/Info                              : Audio Coding 3
  160. Commercial name                          : Dolby Digital
  161. Codec ID                                 : A_AC3
  162. Duration                                 : 1 h 37 min
  163. Bit rate mode                            : Constant
  164. Bit rate                                 : 448 kb/s
  165. Channel(s)                               : 6 channels
  166. Channel layout                           : L R C LFE Ls Rs
  167. Sampling rate                            : 48.0 kHz
  168. Frame rate                               : 31.250 FPS (1536 SPF)
  169. Bit depth                                : 16 bits
  170. Compression mode                         : Lossy
  171. Stream size                              : 312 MiB (1%)
  172. Title                                    : Abominable.2019.1080p.BluRay.REMUX.AVC.DTS-HD.MA.TrueHD.7.1.Atmos-FGT
  173. Language                                 : French
  174. Service kind                             : Complete Main
  175. Default                                  : No
  176. Forced                                   : No

  177. Audio #8
  178. ID                                       : 9
  179. Format                                   : AC-3
  180. Format/Info                              : Audio Coding 3
  181. Commercial name                          : Dolby Digital
  182. Codec ID                                 : A_AC3
  183. Duration                                 : 1 h 37 min
  184. Bit rate mode                            : Constant
  185. Bit rate                                 : 192 kb/s
  186. Channel(s)                               : 2 channels
  187. Channel layout                           : L R
  188. Sampling rate                            : 48.0 kHz
  189. Frame rate                               : 31.250 FPS (1536 SPF)
  190. Bit depth                                : 16 bits
  191. Compression mode                         : Lossy
  192. Stream size                              : 134 MiB (1%)
  193. Title                                    : Abominable.2019.1080p.BluRay.REMUX.AVC.DTS-HD.MA.TrueHD.7.1.Atmos-FGT
  194. Language                                 : English
  195. Service kind                             : Complete Main
  196. Default                                  : No
  197. Forced                                   : No

  198. Audio #9
  199. ID                                       : 10
  200. Format                                   : AC-3
  201. Format/Info                              : Audio Coding 3
  202. Commercial name                          : Dolby Digital
  203. Codec ID                                 : A_AC3
  204. Duration                                 : 1 h 37 min
  205. Bit rate mode                            : Constant
  206. Bit rate                                 : 192 kb/s
  207. Channel(s)                               : 2 channels
  208. Channel layout                           : L R
  209. Sampling rate                            : 48.0 kHz
  210. Frame rate                               : 31.250 FPS (1536 SPF)
  211. Bit depth                                : 16 bits
  212. Compression mode                         : Lossy
  213. Stream size                              : 134 MiB (1%)
  214. Title                                    : Abominable.2019.1080p.BluRay.REMUX.AVC.DTS-HD.MA.TrueHD.7.1.Atmos-FGT
  215. Language                                 : English
  216. Service kind                             : Complete Main
  217. Default                                  : No
  218. Forced                                   : No

  219. Text #1
  220. ID                                       : 11
  221. Format                                   : UTF-8
  222. Codec ID                                 : S_TEXT/UTF8
  223. Codec ID/Info                            : UTF-8 Plain Text
  224. Duration                                 : 1 h 25 min
  225. Bit rate                                 : 45 b/s
  226. Count of elements                        : 1091
  227. Stream size                              : 28.6 KiB (0%)
  228. Title                                    : English-SRT
  229. Language                                 : English
  230. Default                                  : Yes
  231. Forced                                   : No

  232. Text #2
  233. ID                                       : 12
  234. Format                                   : PGS
  235. Muxing mode                              : zlib
  236. Codec ID                                 : S_HDMV/PGS
  237. Codec ID/Info                            : Picture based subtitle format used on BDs/HD-DVDs
  238. Duration                                 : 1 h 35 min
  239. Bit rate                                 : 39.0 kb/s
  240. Count of elements                        : 3094
  241. Stream size                              : 26.7 MiB (0%)
  242. Title                                    : English-PGS
  243. Language                                 : English
  244. Default                                  : No
  245. Forced                                   : No

  246. Text #3
  247. ID                                       : 13
  248. Format                                   : PGS
  249. Muxing mode                              : zlib
  250. Codec ID                                 : S_HDMV/PGS
  251. Codec ID/Info                            : Picture based subtitle format used on BDs/HD-DVDs
  252. Duration                                 : 1 h 35 min
  253. Bit rate                                 : 24.7 kb/s
  254. Count of elements                        : 2157
  255. Stream size                              : 16.9 MiB (0%)
  256. Title                                    : Spanish-PGS
  257. Language                                 : Spanish
  258. Default                                  : No
  259. Forced                                   : No

  260. Text #4
  261. ID                                       : 14
  262. Format                                   : PGS
  263. Muxing mode                              : zlib
  264. Codec ID                                 : S_HDMV/PGS
  265. Codec ID/Info                            : Picture based subtitle format used on BDs/HD-DVDs
  266. Duration                                 : 1 h 35 min
  267. Bit rate                                 : 24.8 kb/s
  268. Count of elements                        : 1994
  269. Stream size                              : 17.0 MiB (0%)
  270. Title                                    : French-PGS
  271. Language                                 : French
  272. Default                                  : No
  273. Forced                                   : No

  274. Text #5
  275. ID                                       : 15
  276. Format                                   : PGS
  277. Muxing mode                              : zlib
  278. Codec ID                                 : S_HDMV/PGS
  279. Codec ID/Info                            : Picture based subtitle format used on BDs/HD-DVDs
  280. Duration                                 : 1 h 35 min
  281. Bit rate                                 : 143 b/s
  282. Count of elements                        : 12
  283. Stream size                              : 99.6 KiB (0%)
  284. Title                                    : Spanish-FORCED-PGS
  285. Language                                 : Spanish
  286. Default                                  : No
  287. Forced                                   : No

  288. Text #6
  289. ID                                       : 16
  290. Format                                   : PGS
  291. Muxing mode                              : zlib
  292. Codec ID                                 : S_HDMV/PGS
  293. Codec ID/Info                            : Picture based subtitle format used on BDs/HD-DVDs
  294. Duration                                 : 1 h 35 min
  295. Bit rate                                 : 206 b/s
  296. Count of elements                        : 18
  297. Stream size                              : 143 KiB (0%)
  298. Title                                    : French-FORCED-PGS
  299. Language                                 : French
  300. Default                                  : No
  301. Forced                                   : No

  302. Menu
  303. 00:00:00.000                             : en:Chapter 01
  304. 00:04:11.834                             : en:Chapter 02
  305. 00:09:10.883                             : en:Chapter 03
  306. 00:13:42.238                             : en:Chapter 04
  307. 00:16:13.597                             : en:Chapter 05
  308. 00:21:34.751                             : en:Chapter 06
  309. 00:25:02.459                             : en:Chapter 07
  310. 00:29:30.435                             : en:Chapter 08
  311. 00:33:57.452                             : en:Chapter 09
  312. 00:36:43.784                             : en:Chapter 10
  313. 00:41:53.010                             : en:Chapter 11
  314. 00:46:30.704                             : en:Chapter 12
  315. 00:50:42.330                             : en:Chapter 13
  316. 00:56:31.554                             : en:Chapter 14
  317. 01:01:40.530                             : en:Chapter 15
  318. 01:06:33.197                             : en:Chapter 16
  319. 01:11:44.425                             : en:Chapter 17
  320. 01:15:26.355                             : en:Chapter 18
  321. 01:20:41.545                             : en:Chapter 19
  322. 01:26:44.407                             : en:Chapter 20
复制代码

雪人奇缘 Abominable.2019.1080p.BluRay.REMUX.AVC.DTS-HD.MA.TrueHD.7.1.Atmos-FGT 25.53GB-2.png 雪人奇缘 Abominable.2019.1080p.BluRay.REMUX.AVC.DTS-HD.MA.TrueHD.7.1.Atmos-FGT 25.53GB-3.png 雪人奇缘 Abominable.2019.1080p.BluRay.REMUX.AVC.DTS-HD.MA.TrueHD.7.1.Atmos-FGT 25.53GB-4.png







回复

使用道具 举报

级别:功成名就 Lv.9

注册时间
2019-4-24
最后登录
2020-8-6
听众
16
收听
0
主题
0
蓝光币
575 枚
贡献
0 点
发表于 2019-12-18 15:49:47 | 显示全部楼层
楼主发贴辛苦了,谢谢楼主分享!我觉得中国高清电影网是注册对了!
回复

使用道具 举报

懒得打字嘛,点击右侧快捷回复 【右侧内容,后台自定义】
您需要登录后才可以回帖 登录 | 立即注册

本版积分规则

Archiver|手机版|小黑屋| 中国高清网 ( ICP备17007870号-2 ) |网站地图 

GMT+8, 2020-8-7 17:23 , Processed in 0.199819 second(s), 39 queries .

Powered by HDchina X3.4

Copyright 2017-2019©HDchina.All right reserved

返回顶部 联系我们