查看: 1124|回复: 21

[10bit.HDR] 星际探索/星际任务 Ad.Astra.2019.2160p.UHD.BluRay.X265.10bit.HDR.TrueHD.7.1.Atmos-AAAUHD 21.46GB

[复制链接]

 成长值: 6410

级别:资源管理组

注册时间
2017-10-20
最后登录
2020-8-7
听众
1
收听
0
主题
100960
蓝光币
179126 枚
贡献
21715 点
发表于 2019-12-8 20:10:20 | 显示全部楼层 |阅读模式
星际摸索/星际使命 Ad.Astra.2019.2160p.UHD.BluRay.X265.10bit.HDR.TrueHD.7.1.Atmos-AAAUHD 21.46GB-1.png

译  名 星际摸索 / 星际使命(港) / 星际探险 / 星际救济(台)
片  名 Ad Astra
年  代 2019
产  地 美国
类  别 科幻 / 悬疑 / 冒险 / 灾难
语  言 英语
上映日期 2019-08-29(威尼斯电影节) / 2019-09-20(美国) / 2019-12-06(中国大陆)
IMDb评分  7.0/10 from 68398 users
IMDb链接  https://www.imdb.com/title/tt2935510
豆瓣评分 6.8/10 from 4215 users
豆瓣链接 https://movie.douban.com/subject/24716039/
片  长 124分钟
导  演 詹姆士·格雷 James Gray
编  剧 詹姆士·格雷 James Gray / 伊森·格罗斯 Ethan Gross
主  演 布拉德·皮特 Brad Pitt
       汤米·李·琼斯 Tommy Lee Jones
       鲁丝·内伽 Ruth Negga
       唐纳德·萨瑟兰 Donald Sutherland
       丽芙·泰勒 Liv Tyler
       肖恩·布莱克默 Sean Blakemore
       约翰·芬 John Finn
       杰米·肯尼迪 Jamie Kennedy
       格雷格·布瑞克 Greg Bryk
       吉米·希尔兹 Kimmy Shields
       丽莎·盖伊·汉密尔顿 Lisa Gay Hamilton
       劳恩·迪恩 Loren Dean
       约翰·奥提兹 John Ortiz
       金伯莉·伊丽丝 Kimberly Elise
       丹尼尔·萨乌利 Daniel Sauli
       安妮·麦克代尼尔斯 Anne McDaniels
       艾莉森·瑞德 Alyson Reed
       唐尼·科沙瓦茨 Donnie Keshawarz
       马洛里露 Mallory Low
       希拉·M·洛克哈特 Sheila M. Lockhart


标  签 科幻 | 太空 | 宇宙 | 美国 | 2019 | 冒险 | 惊悚 | 星际

简  介  

  地球上接连出现奥秘怪象,科学家发现某种失控的反物资反应正在威胁全部太阳系,人类保存极端堪忧……地球生死攸关之际,天赋航天工程师罗伊(布拉德·皮特 饰)被派往外太空,试图揭开谜团拯救人类。这是一场横跨地球、月球、火星、海王星,穿越全部太阳系的硬核冒险,一路危机重重险象环生,罗伊直面爆炸、陨石、月球飙车枪战、奥秘生物等意想不到的考验,还找回了失联20年的父亲!昔时罗伊的父亲(汤米·李·琼斯 饰)分开地球探访外星聪明生物,成果使命失利,消失在茫茫宇宙当中。现在父子重逢,罗伊在太空深处发现了不为人知的奥秘,渐渐触达一切事务的终极真相……

获奖情况  

  第76届威尼斯电影节(2019)
  主比赛单元 金狮奖 (提名) 詹姆斯·格雷
  1. Video
  2. ID                                       : 1
  3. Format                                   : HEVC
  4. Format/Info                              : High Efficiency Video Coding
  5. Format profile                           : Main High@L4@High
  6. HDR format                               : SMPTE ST 2086, HDR10 compatible
  7. Codec ID                                 : V_MPEGH/ISO/HEVC
  8. Duration                                 : 2 h 3 min
  9. Bit rate                                 : 19.6 Mb/s
  10. Width                                    : 3 840 pixels
  11. Height                                   : 1 610 pixels
  12. Display aspect ratio                     : 2.40:1
  13. Frame rate mode                          : Constant
  14. Frame rate                               : 23.976 (24000/1001) FPS
  15. Color space                              : YUV
  16. Chroma subsampling                       : 4:2:0 (Type 2)
  17. Bit depth                                : 10 bits
  18. Bits/(Pixel*Frame)                       : 0.133
  19. Stream size                              : 16.9 GiB (80%)
  20. Title                                    : Ad.Astra.2019.2160p.UHD.BluRay-AAAUHD
  21. Writing library                          : x265 3.27fc1f6ef2b96:[Windows][GCC 9.2.1][64 bit] 10bit
  22. Encoding settings                        : cpuid=1111039 / frame-threads=4 / numa-pools=24 / wpp / no-pmode / no-pme / no-psnr / no-ssim / log-level=2 / input-csp=1 / input-res=3840x1610 / interlace=0 / total-frames=177000 / level-idc=51 / high-tier=1 / uhd-bd=0 / ref=4 / no-allow-non-conformance / repeat-headers / annexb / aud / hrd / info / hash=0 / no-temporal-layers / no-open-gop / min-keyint=1 / keyint=24 / gop-lookahead=0 / bframes=4 / b-adapt=2 / b-pyramid / bframe-bias=0 / rc-lookahead=25 / lookahead-slices=4 / scenecut=40 / radl=0 / no-splice / no-intra-refresh / ctu=64 / min-cu-size=8 / rect / no-amp / max-tu-size=32 / tu-inter-depth=1 / tu-intra-depth=1 / limit-tu=0 / rdoq-level=2 / dynamic-rd=0.00 / no-ssim-rd / signhide / no-tskip / nr-intra=0 / nr-inter=0 / no-constrained-intra / no-strong-intra-smoothing / max-merge=3 / limit-refs=3 / limit-modes / me=3 / subme=3 / merange=57 / temporal-mvp / no-frame-dup / no-hme / weightp / no-weightb / no-analyze-src-pics / deblock=-3:-3 / no-sao / no-sao-non-deblock / rd=4 / selective-sao=0 / no-early-skip / rskip / no-fast-intra / no-tskip-fast / no-cu-lossless / no-b-intra / no-splitrd-skip / rdpenalty=0 / psy-rd=2.00 / psy-rdoq=1.00 / no-rd-refine / no-lossless / cbqpoffs=0 / crqpoffs=0 / rc=crf / crf=17.0 / qcomp=0.60 / qpstep=4 / stats-write=0 / stats-read=0 / vbv-maxrate=160000 / vbv-bufsize=160000 / vbv-init=0.9 / crf-max=0.0 / crf-min=0.0 / ipratio=1.40 / pbratio=1.30 / aq-mode=2 / aq-strength=1.00 / cutree / zone-count=0 / no-strict-cbr / qg-size=32 / no-rc-grain / qpmax=69 / qpmin=0 / no-const-vbv / sar=1 / overscan=0 / videoformat=5 / range=0 / colorprim=9 / transfer=16 / colormatrix=9 / chromaloc=1 / chromaloc-top=2 / chromaloc-bottom=2 / display-window=0 / master-display=G(13250,34500)B(7500,3000)R(34000,16000)WP(15635,16450)L(10000000,50) / cll=0,0 / min-luma=0 / max-luma=1023 / log2-max-poc-lsb=8 / vui-timing-info / vui-hrd-info / slices=1 / no-opt-qp-pps / no-opt-ref-list-length-pps / no-multi-pass-opt-rps / scenecut-bias=0.05 / no-opt-cu-delta-qp / no-aq-motion / hdr / hdr-opt / no-dhdr10-opt / no-idr-recovery-sei / analysis-reuse-level=5 / scale-factor=0 / refine-intra=0 / refine-inter=0 / refine-mv=1 / refine-ctu-distortion=0 / no-limit-sao / ctu-info=0 / no-lowpass-dct / refine-analysis-type=0 / copy-pic=1 / max-ausize-factor=1.0 / no-dynamic-refine / no-single-sei / no-hevc-aq / no-svt / no-field / qp-adaptation-range=1.00
  23. Default                                  : Yes
  24. Forced                                   : No
  25. Color range                              : Limited
  26. Color primaries                          : BT.2020
  27. Transfer characteristics                 : PQ
  28. Matrix coefficients                      : BT.2020 non-constant
  29. Mastering display color primaries        : Display P3
  30. Mastering display luminance              : min: 0.0050 cd/m2, max: 1000 cd/m2

  31. Audio #1
  32. ID                                       : 2
  33. Format                                   : MLP FBA 16-ch
  34. Format/Info                              : Meridian Lossless Packing FBA with 16-channel presentation
  35. Commercial name                          : Dolby TrueHD with Dolby Atmos
  36. Codec ID                                 : A_TRUEHD
  37. Duration                                 : 2 h 3 min
  38. Bit rate mode                            : Variable
  39. Bit rate                                 : 3 388 kb/s
  40. Maximum bit rate                         : 6 165 kb/s
  41. Channel(s)                               : 8 channels
  42. Channel layout                           : L R C LFE Ls Rs Lb Rb
  43. Sampling rate                            : 48.0 kHz
  44. Frame rate                               : 1 200.000 FPS (40 SPF)
  45. Compression mode                         : Lossless
  46. Stream size                              : 2.91 GiB (14%)
  47. Title                                    : English Dolby TrueHD with Dolby Atmos (TrueHD)
  48. Language                                 : English
  49. Default                                  : Yes
  50. Forced                                   : No
  51. Number of dynamic objects                : 13
  52. Bed channel count                        : 1 channel
  53. Bed channel configuration                : LFE

  54. Audio #2
  55. ID                                       : 3
  56. Format                                   : DTS
  57. Format/Info                              : Digital Theater Systems
  58. Codec ID                                 : A_DTS
  59. Duration                                 : 2 h 3 min
  60. Bit rate mode                            : Constant
  61. Bit rate                                 : 1 509 kb/s
  62. Channel(s)                               : 6 channels
  63. Channel layout                           : C L R Ls Rs LFE
  64. Sampling rate                            : 48.0 kHz
  65. Frame rate                               : 93.750 FPS (512 SPF)
  66. Bit depth                                : 24 bits
  67. Compression mode                         : Lossy
  68. Stream size                              : 1.30 GiB (6%)
  69. Title                                    : English Digital Theater Systems (DTS)
  70. Language                                 : English
  71. Default                                  : No
  72. Forced                                   : No

  73. Text #1
  74. ID                                       : 4
  75. Format                                   : UTF-8
  76. Codec ID                                 : S_TEXT/UTF8
  77. Codec ID/Info                            : UTF-8 Plain Text
  78. Duration                                 : 1 h 50 min
  79. Bit rate                                 : 50 b/s
  80. Count of elements                        : 1389
  81. Stream size                              : 41.1 KiB (0%)
  82. Title                                    : English SDH
  83. Language                                 : English
  84. Default                                  : No
  85. Forced                                   : No

  86. Text #2
  87. ID                                       : 5
  88. Format                                   : PGS
  89. Codec ID                                 : S_HDMV/PGS
  90. Codec ID/Info                            : Picture based subtitle format used on BDs/HD-DVDs
  91. Duration                                 : 1 h 50 min
  92. Bit rate                                 : 36.0 kb/s
  93. Count of elements                        : 2786
  94. Stream size                              : 28.5 MiB (0%)
  95. Title                                    : English PGS
  96. Language                                 : English
  97. Default                                  : No
  98. Forced                                   : No

  99. Menu
  100. 00:00:00.000                             : :Chapter 01
  101. 00:04:22.679                             : :Chapter 02
  102. 00:08:48.695                             : :Chapter 03
  103. 00:16:25.776                             : :Chapter 04
  104. 00:22:33.811                             : :Chapter 05
  105. 00:30:08.515                             : :Chapter 06
  106. 00:35:08.273                             : :Chapter 07
  107. 00:40:33.348                             : :Chapter 08
  108. 00:44:45.391                             : :Chapter 09
  109. 00:48:56.809                             : :Chapter 10
  110. 00:53:51.812                             : :Chapter 11
  111. 00:56:43.775                             : :Chapter 12
  112. 01:01:31.897                             : :Chapter 13
  113. 01:07:23.873                             : :Chapter 14
  114. 01:12:12.411                             : :Chapter 15
  115. 01:16:59.114                             : :Chapter 16
  116. 01:21:35.182                             : :Chapter 17
  117. 01:24:42.661                             : :Chapter 18
  118. 01:31:16.554                             : :Chapter 19
  119. 01:36:27.031                             : :Chapter 20
  120. 01:40:59.595                             : :Chapter 21
  121. 01:46:26.589                             : :Chapter 22
  122. 01:50:00.052                             : :Chapter 23
  123. 01:53:17.791                             : :Chapter 24
复制代码

星际摸索/星际使命 Ad.Astra.2019.2160p.UHD.BluRay.X265.10bit.HDR.TrueHD.7.1.Atmos-AAAUHD 21.46GB-2.png 星际摸索/星际使命 Ad.Astra.2019.2160p.UHD.BluRay.X265.10bit.HDR.TrueHD.7.1.Atmos-AAAUHD 21.46GB-3.png 星际摸索/星际使命 Ad.Astra.2019.2160p.UHD.BluRay.X265.10bit.HDR.TrueHD.7.1.Atmos-AAAUHD 21.46GB-4.png







本帖隐藏的下载地址需要VIP会员才可阅读,您需要升级才可阅读,点击这里升级VIP
回复

使用道具 举报

级别:群众演员 Lv.3

注册时间
2019-12-1
最后登录
2020-3-13
听众
2
收听
0
主题
0
蓝光币
105 枚
贡献
0 点
发表于 2019-12-8 21:06:33 | 显示全部楼层

既然你诚信诚意的推荐了,那我就勉为其难的看看吧!中国高清电影网不走平凡路。
回复

使用道具 举报

级别:群众演员 Lv.3

注册时间
2019-12-1
最后登录
2020-3-13
听众
2
收听
0
主题
0
蓝光币
105 枚
贡献
0 点
发表于 2019-12-9 06:52:21 | 显示全部楼层

楼主太厉害了!楼主,电影应该很好看我觉得中国高清电影网真是个好地方!
回复

使用道具 举报

级别:群众演员 Lv.3

注册时间
2019-12-1
最后登录
2020-3-13
听众
2
收听
0
主题
0
蓝光币
105 枚
贡献
0 点
发表于 2019-12-9 06:55:46 | 显示全部楼层

既然你诚信诚意的推荐了,那我就勉为其难的看看吧!中国高清电影网不走平凡路。
回复

使用道具 举报

 成长值: 5335

级别:尊贵的会员

注册时间
2019-3-14
最后登录
2020-7-26
听众
16
收听
0
主题
0
蓝光币
69 枚
贡献
0 点
发表于 2019-12-9 10:04:44 | 显示全部楼层
楼主发贴辛苦了,谢谢楼主分享!我觉得中国高清电影网是注册对了!
回复

使用道具 举报

级别:普通观众 Lv.2

注册时间
2019-11-24
最后登录
2020-7-10
听众
2
收听
0
主题
0
蓝光币
0 枚
贡献
0 点
发表于 2019-12-10 12:38:34 | 显示全部楼层
楼主发贴辛苦了,谢谢楼主分享!我觉得中国高清电影网是注册对了!
回复

使用道具 举报

级别:初级观众 Lv.1

注册时间
2019-9-21
最后登录
2020-1-1
听众
2
收听
0
主题
0
蓝光币
2 枚
贡献
0 点
发表于 2019-12-14 12:33:29 | 显示全部楼层

其实我一直觉得楼主的品味不错!呵呵!中国高清电影网太棒了!
回复

使用道具 举报

级别:荣升主角 Lv.5

注册时间
2019-6-22
最后登录
2020-8-4
听众
12
收听
0
主题
0
蓝光币
692 枚
贡献
0 点
发表于 2019-12-14 18:58:25 | 显示全部楼层

既然你诚信诚意的推荐了,那我就勉为其难的看看吧!中国高清电影网不走平凡路。
回复

使用道具 举报

级别:初级观众 Lv.1

注册时间
2019-12-14
最后登录
2020-1-21
听众
2
收听
0
主题
0
蓝光币
0 枚
贡献
0 点
发表于 2019-12-14 19:10:15 | 显示全部楼层
楼主发贴辛苦了,谢谢楼主分享!
回复

使用道具 举报

级别:初级观众 Lv.1

注册时间
2019-5-7
最后登录
2020-8-1
听众
11
收听
0
主题
0
蓝光币
1 枚
贡献
0 点
发表于 2019-12-14 20:57:11 | 显示全部楼层
楼主发贴辛苦了,谢谢楼主分享!我觉得中国高清电影网是注册对了!
回复

使用道具 举报

懒得打字嘛,点击右侧快捷回复 【右侧内容,后台自定义】
您需要登录后才可以回帖 登录 | 立即注册

本版积分规则

Archiver|手机版|小黑屋| 中国高清网 ( ICP备17007870号-2 ) |网站地图 

GMT+8, 2020-8-7 11:17 , Processed in 0.208622 second(s), 39 queries .

Powered by HDchina X3.4

Copyright 2017-2019©HDchina.All right reserved

返回顶部 联系我们