查看: 49|回复: 2

[剧情片] 大搜查之女 Lady.Cop.and.Papa.Crook.2008.DC.720p.BluRay.x264-REGRET 4.39GB

[复制链接]

 成长值: 3410

级别:资源管理组

注册时间
2017-10-20
最后登录
2019-12-10
听众
1
收听
0
主题
88361
蓝光币
69822 枚
贡献
12723 点
发表于 2019-12-2 23:15:45 | 显示全部楼层 |阅读模式
大搜寻之女 Lady.Cop.and.Papa.Crook.2008.DC.720p.BluRay.x264-REGRET 4.39GB-1.png
+ a( J! y' S1 e" u# _1 W
9 _* a# A4 ~1 g译  名 Lady Cop & Papa Crook / 大搜寻6 T( c; E5 z( u* @/ b
片  名 大搜寻之女/ K- K6 t" y/ I& }: |) i$ [+ h
年  代 2008- u( \7 L* y" z% R* K
产  地 中国香港 / 中国大陆' n+ w! z0 W+ P- D0 H$ B; W
类  别 笑剧 / 惊悚 / 犯罪
! w: y" t% v% D) C# Q$ ~语  言 粤语 / 普通话
3 G- F3 O4 i4 j5 w6 B+ A上映日期 2008-12-24; e; x) v% r9 p0 f
IMDb评分  5.2/10 from 269 users
9 G8 d% T" K: EIMDb链接  https://www.imdb.com/title/tt1258130
5 _7 {; u. C  q豆瓣评分 5.9/10 from 18728 users7 Q" ?* i6 V/ J6 u) {, I5 F
豆瓣链接 https://movie.douban.com/subject/3136488/
2 x" `5 {7 V' }  F8 E# Q# a& |片  长 92分钟0 s$ @7 N/ {- w
导  演 麦兆辉 / 庄文强; k3 ~; y5 H8 w( O  F
编  剧 麦兆辉 / 庄文强5 u# _- I. G2 m
主  演 郑秀文
+ G4 q& I9 d' i6 q       陈奕迅# ]: g8 V4 }1 V2 U* [* {: b9 c, M
       张国立, D) i$ K% Z- y" ~& U2 I
       董勇' ~% o0 d/ @% @
       杜汶泽
) N/ @! J+ D1 I: c       叶璇# P9 b) _4 Q) K6 k$ a" p
       徐子珊
, X5 l6 c! W- K7 m8 L; m8 J       刘浩龙) ]. E$ T* y, m
       任贤齐: Z# o) ~0 z: B8 I! \' H
       陈子聪
+ `4 ]' d3 P( e  G' D       黄德斌
, y. D$ W% j2 W7 Z8 }/ ~6 Y0 V       谭耀文* @. _4 ~7 Q2 X
       谷祖琳( o) O, h3 E2 U. w# d/ F/ o

2 S- G# |0 C. r) _2 B) b
7 O: [- X, H# s& m4 M- Y5 M7 k! ]标  签 郑秀文 | 陈奕迅 | 香港电影 | 香港 | 麦兆辉 | 警匪 | 2008 | 电影
7 ~2 h; _7 D3 i, ?1 N$ |4 w2 k- {: b( _, {
简  介  
. L% f# t1 R' W; r
+ ]. T# Y5 S9 _  33岁还未成婚的香港女警司徒慕莲(郑秀文饰)一向为自己的亲事忧愁。男友十年前的许诺,现在成了她与同事间的笑谈。一日,走私团体的头目霍青松(陈奕迅饰)的儿子被绑架,司徒慕莲受命处置这宗案件。但霍青松一家为避免因走私之事被警方控诉,处处表示出分歧作的态度,而此时司徒慕莲发现自己有了身孕。
. m% j. `5 T1 u  g6 w  黑白两道在一间大屋下貌和神离,霍家高低各自心胸暗计,同时,大陆警方也传来了结合破案的消息。作为“剩女”的司徒慕莲、作为差人的司徒慕莲,她到底能否处理眼前面临的一切?
# |+ B) e- {6 H8 y
  1. Video% }5 C% _4 L$ _3 }/ H
  2. ID                                       : 12 \, ?, D: ]3 `% ~0 ~8 [* h! y
  3. Format                                   : AVC
    + ]7 m- L3 f7 w9 y4 c
  4. Format/Info                              : Advanced Video Codec/ [& k- ^4 W. h% i7 T
  5. Format profile                           : High@L42 {: t# F1 E8 ~, r* t0 j
  6. Format settings                          : CABAC / 5 Ref Frames
    $ H  s* O; G( J* q
  7. Format settings, CABAC                   : Yes
    : m, w* [" A/ o; j' P- R
  8. Format settings, Reference frames        : 5 frames) s0 E# b$ b1 h2 A
  9. Codec ID                                 : V_MPEG4/ISO/AVC' K/ p/ }+ ]4 V7 C8 _
  10. Duration                                 : 1 h 38 min7 ]) C9 E/ P$ p4 {0 p4 P( }2 ?$ m
  11. Bit rate                                 : 5 730 kb/s, o% e( L6 V/ A7 X# A
  12. Width                                    : 1 280 pixels
    - T4 i1 ]9 U* l6 L8 B- M0 Q6 H8 f' h
  13. Height                                   : 720 pixels6 Z4 K/ g2 k& c( g' p2 s' a! N) M
  14. Display aspect ratio                     : 16:9
    2 F, _/ s$ p3 B' X0 u
  15. Frame rate mode                          : Constant
    ) Q; c2 T. f  t1 I/ X7 n4 n0 `
  16. Frame rate                               : 24.000 FPS3 b) v8 Q- _$ d& m0 ?- g. D) e: A
  17. Color space                              : YUV% s4 A& E$ d& j7 U+ Z# a
  18. Chroma subsampling                       : 4:2:0
    7 k1 c4 f, ~" k% }* |5 d9 x! C; J
  19. Bit depth                                : 8 bits' R4 d; X% Q5 S- d1 I0 G0 U, l5 Y
  20. Scan type                                : Progressive
    3 G+ M. Q9 E! L5 N
  21. Bits/(Pixel*Frame)                       : 0.259) g# F3 v+ s& [
  22. Stream size                              : 3.93 GiB (90%)
    : d; T; W6 H) |2 Z
  23. Writing library                          : x264 core 158 r2988 7817004: u7 G5 R$ l2 D/ `* r
  24. Encoding settings                        : cabac=1 / ref=5 / deblock=1:-3:-3 / analyse=0x3:0x133 / me=umh / subme=9 / psy=1 / psy_rd=1.00:0.00 / mixed_ref=1 / me_range=16 / chroma_me=1 / trellis=2 / 8x8dct=1 / cqm=0 / deadzone=21,11 / fast_pskip=0 / chroma_qp_offset=-2 / threads=22 / lookahead_threads=1 / sliced_threads=0 / nr=0 / decimate=1 / interlaced=0 / bluray_compat=0 / constrained_intra=0 / bframes=3 / b_pyramid=2 / b_adapt=1 / b_bias=0 / direct=3 / weightb=1 / open_gop=0 / weightp=2 / keyint=240 / keyint_min=24 / scenecut=40 / intra_refresh=0 / rc_lookahead=50 / rc=2pass / mbtree=1 / bitrate=5730 / ratetol=1.0 / qcomp=0.60 / qpmin=0 / qpmax=69 / qpstep=4 / cplxblur=20.0 / qblur=0.5 / ip_ratio=1.40 / aq=1:1.00
    2 i; W) k- u) K0 U$ S( h
  25. Language                                 : English% k% J) p/ Y5 i* i' o% q
  26. Default                                  : Yes! i! S( M* A" I
  27. Forced                                   : No, l$ l, q: C# w+ y1 e" h9 N
  28. 2 F" L1 F8 i) m  `) Y) [7 [# F
  29. Audio) s) y4 j3 L  ^2 ]5 G( u, @; M
  30. ID                                       : 2
    ; k9 K9 [- k# d3 Y
  31. Format                                   : AC-3: C/ Y+ i! y6 C9 J, I, f
  32. Format/Info                              : Audio Coding 3
    ) ~' Q! l1 T$ S' z; \6 U
  33. Commercial name                          : Dolby Digital
    ) t6 Q' n& P. h! w. e) F
  34. Codec ID                                 : A_AC3
    ( X# `  ]" @. D& w
  35. Duration                                 : 1 h 38 min1 P7 E/ m3 W; @9 j
  36. Bit rate mode                            : Constant8 L/ W' ], ^: H' R# U
  37. Bit rate                                 : 640 kb/s
    # v+ N* L8 H! }. X. @& E' S
  38. Channel(s)                               : 6 channels# B9 @4 y* h$ P0 E8 [- _
  39. Channel layout                           : L R C LFE Ls Rs. L4 z8 D# A: q
  40. Sampling rate                            : 48.0 kHz
    0 X& u' J' n1 W. T% o7 B( L
  41. Frame rate                               : 31.250 FPS (1536 SPF)
    3 O# f. C* m. B
  42. Bit depth                                : 16 bits. k: l5 y6 s* q+ o2 s3 [
  43. Compression mode                         : Lossy
    * Y4 c( X4 m, ]) O
  44. Stream size                              : 450 MiB (10%)
    5 D+ h/ M( y9 I) h
  45. Language                                 : Chinese
    ; A8 r& Y9 i" B* P  P3 |
  46. Service kind                             : Complete Main
    4 A. h2 S" J8 k9 V- M- w* D
  47. Default                                  : Yes" w" v1 M6 Z  u  f( b0 P
  48. Forced                                   : No4 ?! L+ A0 P+ J, I# M8 E4 W! V/ @
  49. - i. M1 t9 h4 f, |; I, x
  50. Text
    4 ]9 `( N' D3 f4 r% w( R
  51. ID                                       : 3
    ' z) g* E; L) z: X  w
  52. Format                                   : UTF-8% o: P! c* {" S) u: H
  53. Codec ID                                 : S_TEXT/UTF8' H7 I& H8 W" j* a0 v- h
  54. Codec ID/Info                            : UTF-8 Plain Text8 H) U+ v6 D$ ?5 J, P5 z# I
  55. Duration                                 : 1 h 34 min  K% |+ X! g5 |9 I( f* T8 Z, e
  56. Bit rate                                 : 44 b/s
    4 v$ x4 Z+ Z3 W6 E2 w
  57. Count of elements                        : 1162/ b6 w) q' l6 K9 z+ p
  58. Stream size                              : 30.5 KiB (0%)
    " J# B# ^) i; ?& E
  59. Title                                    : English Forced
    - b, t3 K! J1 |
  60. Language                                 : English% d+ O! A" ?) D! \# e% ^
  61. Default                                  : Yes
    - J' t2 B! U- Z$ X2 w  ~
  62. Forced                                   : Yes
    ' M* p! _2 ]7 @6 |7 Y

  63. / s% r) p6 y# S
  64. Menu1 F0 \' S% ]7 \% @$ G
  65. 00:00:00.000                             : en:00:00:00.000
    # U6 d4 i; Y5 i: s( Y
  66. 00:06:34.000                             : en:00:06:34.000
    8 B: q9 _- C) H4 B7 B0 `# V0 e
  67. 00:11:44.000                             : en:00:11:44.000
      r( f/ p6 F) q8 X
  68. 00:15:12.000                             : en:00:15:12.000
    * [" S8 j: K& q
  69. 00:18:30.000                             : en:00:18:30.000( o& V9 s6 i% L+ ^! @
  70. 00:23:42.000                             : en:00:23:42.000' Y9 ]) `" E" @* _. _" g
  71. 00:26:16.000                             : en:00:26:16.000! n+ B5 B3 }0 H7 M/ e/ Y- J
  72. 00:31:00.000                             : en:00:31:00.000* R' S( L( Z7 `8 h1 W3 p* t0 `9 h6 F
  73. 00:36:48.000                             : en:00:36:48.0009 t" w9 z0 J, W* `$ S$ w+ r
  74. 00:40:53.000                             : en:00:40:53.0007 B5 H; ~% ]9 t  u2 ~+ U, X
  75. 00:45:48.000                             : en:00:45:48.000
    9 h- L' v1 y0 r  e! s1 v4 P/ y
  76. 00:50:18.000                             : en:00:50:18.000
    # s1 j5 ?2 R" N+ A1 n
  77. 00:54:44.000                             : en:00:54:44.0009 y' ?( ?: w3 S% i
  78. 01:00:49.000                             : en:01:00:49.000
    # N4 H' d# {* [8 ^5 h
  79. 01:07:13.000                             : en:01:07:13.0008 ?9 w; w+ d) W5 z0 K, f' l) Q
  80. 01:11:05.000                             : en:01:11:05.0007 S) W) I+ m0 C; }' h9 `* p9 a
  81. 01:17:30.000                             : en:01:17:30.000
    4 Q( P* r) _( j/ N; j5 s2 P
  82. 01:21:55.000                             : en:01:21:55.000
    : ~, ~. l2 F4 ~& ?( ]7 q% L: p
  83. 01:27:50.708                             : en:01:27:50.708
    5 w9 t) n; Z! N7 s$ P6 J
  84. 01:35:26.000                             : en:01:35:26.000
复制代码

; O$ H6 f; l) q. a/ S  a4 `, m 大搜寻之女 Lady.Cop.and.Papa.Crook.2008.DC.720p.BluRay.x264-REGRET 4.39GB-2.png 大搜寻之女 Lady.Cop.and.Papa.Crook.2008.DC.720p.BluRay.x264-REGRET 4.39GB-3.png 大搜寻之女 Lady.Cop.and.Papa.Crook.2008.DC.720p.BluRay.x264-REGRET 4.39GB-4.png
8 s0 k9 W& _# R& F* z! F8 t4 R. h

7 ^- j3 A* C, K  Z) P/ J2 h. F9 V& I  j

4 _2 ^& m$ ~7 G3 }
- C- _" @& D. y2 F9 f/ q
- `4 e+ O& D1 _0 O/ `9 F. s2 V" ^
VIP会员免费任意下载本站所有资源!---点击开通
回复

使用道具 举报

级别:一线明星 Lv.8

注册时间
2019-4-24
最后登录
2019-12-10
听众
14
收听
0
主题
0
蓝光币
214 枚
贡献
0 点
发表于 7 天前 | 显示全部楼层
楼主发贴辛苦了,谢谢楼主分享!我觉得中国高清电影网是注册对了!
VIP会员免费任意下载本站所有资源!---点击开通
回复

使用道具 举报

级别:初级观众 Lv.1

注册时间
2019-12-1
最后登录
2019-12-4
听众
1
收听
0
主题
0
蓝光币
1 枚
贡献
0 点
发表于 6 天前 | 显示全部楼层
谢谢楼主分享
VIP会员免费任意下载本站所有资源!---点击开通
回复

使用道具 举报

懒得打字嘛,点击右侧快捷回复 【右侧内容,后台自定义】
您需要登录后才可以回帖 登录 | 立即注册

本版积分规则

QQ|Archiver|手机版|小黑屋| 中国高清网 |网站地图

GMT+8, 2019-12-10 16:11 , Processed in 0.331477 second(s), 38 queries .

Powered by HDchina X3.4

Copyright 2017-2019©HDchina.All right reserved

返回顶部 联系我们