查看: 24|回复: 1

[喜剧片] 大搜查之女 Lady.Cop.and.Papa.Crook.2008.THEATRiCAL.720p.BluRay.x264-REGRET 4.38GB

[复制链接]

 成长值: 3410

级别:资源管理组

注册时间
2017-10-20
最后登录
2019-12-10
听众
1
收听
0
主题
88361
蓝光币
69810 枚
贡献
12723 点
发表于 2019-12-2 22:56:55 | 显示全部楼层 |阅读模式
大搜寻之女 Lady.Cop.and.Papa.Crook.2008.THEATRiCAL.720p.BluRay.x264-REGRET 4.38GB-1.png : X0 e6 z4 t: a9 p& z) [

8 J7 F  ?! B; G译  名 Lady Cop & Papa Crook / 大搜寻
. k0 {0 d4 k( z7 |9 a片  名 大搜寻之女
% o4 L, _$ x7 r' w# y+ i0 @年  代 2008
6 Z5 V+ n/ d, z: x产  地 中国香港 / 中国大陆9 x7 J9 T" \; F$ h* x' l
类  别 笑剧 / 惊悚 / 犯罪
* D6 U3 u$ h- u; k5 i/ B/ R( n$ N语  言 粤语 / 普通话+ v$ b1 u  v! Z1 r+ K9 ?6 g
上映日期 2008-12-247 F  g1 }' E8 j* Z; ]
IMDb评分  5.2/10 from 269 users
( L. C3 T& ]- s( r3 y" k9 jIMDb链接  https://www.imdb.com/title/tt1258130
% k/ _  U+ `) W$ S豆瓣评分 5.9/10 from 18728 users
# }# G: v% W9 a豆瓣链接 https://movie.douban.com/subject/3136488/
+ N" s6 X! f- K片  长 92分钟4 q5 N. G7 |/ Y6 W$ M8 L
导  演 麦兆辉 / 庄文强
! X$ V1 q2 q$ W# Z: O编  剧 麦兆辉 / 庄文强
2 }& `) s$ m3 v2 m9 I主  演 郑秀文% H5 `, m: m4 d2 A1 C
       陈奕迅
$ B7 O- e7 r" X$ Z3 T       张国立) k6 G9 z5 z, j/ {" f& y3 R! l
       董勇
, W2 T0 O0 Q5 M8 g: m4 n( O; [       杜汶泽; k' T9 v. h9 a
       叶璇
0 N: A, J- T: w$ J" M) M       徐子珊+ p( f9 Z* d6 k+ ~
       刘浩龙5 q* T, G, ~* H3 j: n, h; w& o
       任贤齐- N7 [4 W+ b/ ?3 k; S* U- {
       陈子聪! V* i; K* J6 d& e# a4 C
       黄德斌
6 S% c/ R+ o3 J+ U0 R       谭耀文/ [2 D' A' O/ K3 K  Q( b1 @8 {
       谷祖琳$ O# a# V( M" u/ W4 i- O6 F6 {7 v0 ]

5 m! A% z# w3 \1 x0 g7 ~3 _) I8 Q
4 M5 t+ T, J+ j) `! g$ o& n1 I( ^标  签 郑秀文 | 陈奕迅 | 香港电影 | 香港 | 麦兆辉 | 警匪 | 2008 | 电影
# H: d" |# c9 {- e8 v
0 D- u1 F. e4 ~7 a# m  k简  介  
3 u4 x0 v3 S! z7 d; b2 @- p5 C7 G9 M+ R! e9 \1 i+ L
  33岁还未成婚的香港女警司徒慕莲(郑秀文饰)一向为自己的亲事忧愁。男友十年前的许诺,现在成了她与同事间的笑谈。一日,走私团体的头目霍青松(陈奕迅饰)的儿子被绑架,司徒慕莲受命处置这宗案件。但霍青松一家为避免因走私之事被警方控诉,处处表示出分歧作的态度,而此时司徒慕莲发现自己有了身孕。
" Y, E  K3 J4 X" t  D* f( [" T  黑白两道在一间大屋下貌和神离,霍家高低各自心胸暗计,同时,大陆警方也传来了结合破案的消息。作为“剩女”的司徒慕莲、作为差人的司徒慕莲,她到底能否处理眼前面临的一切?) X! s. Q! _8 I8 q$ `. ]7 i5 b
  1. Video
    4 {; Z+ }; X9 R7 t: m
  2. ID                                       : 1
    " D0 J# s& S( C5 G
  3. Format                                   : AVC0 a+ r( R: K4 ?2 }- O
  4. Format/Info                              : Advanced Video Codec. Q5 O3 V! F6 H; M* l7 @0 X
  5. Format profile                           : High@L44 v8 F8 v. s" a% k! g1 a/ M# {
  6. Format settings                          : CABAC / 5 Ref Frames
    , }4 S- w( o3 S& f
  7. Format settings, CABAC                   : Yes
    ) B6 j7 M) U; |! `5 R1 S& W5 V
  8. Format settings, Reference frames        : 5 frames0 R# j" ?, y1 U5 i' H  x( Y1 K8 v: E
  9. Codec ID                                 : V_MPEG4/ISO/AVC
    + _5 r; ^- r* r6 X0 v& F
  10. Duration                                 : 1 h 31 min: h7 G" n. K* F& G( Q
  11. Bit rate                                 : 6 174 kb/s7 I' o( L3 z& B
  12. Width                                    : 1 280 pixels' T# f0 T: W9 [3 s$ v$ c) x8 Y9 z
  13. Height                                   : 720 pixels' t2 Z, }2 U4 |) R9 b1 K7 o
  14. Display aspect ratio                     : 16:9
    1 R  f7 T- C# t# x: R9 V3 O
  15. Frame rate mode                          : Constant
      z! e: l5 J7 u, f1 f9 E
  16. Frame rate                               : 24.000 FPS0 w6 L1 h! D8 M1 M  t6 \  Z% S6 M
  17. Color space                              : YUV
    ( M1 G- d7 n' p: L
  18. Chroma subsampling                       : 4:2:0
    5 @! w9 a) n8 r9 x
  19. Bit depth                                : 8 bits
    8 g5 U8 D: E( F, X1 c' N4 P5 l
  20. Scan type                                : Progressive& s1 e; b/ f$ T$ ~, s0 K* F) P
  21. Bits/(Pixel*Frame)                       : 0.2794 N5 |4 y& Z$ J; v
  22. Stream size                              : 3.96 GiB (91%)) Y$ Y0 q9 F, Q; Y; S7 }& |
  23. Writing library                          : x264 core 158 r2988 7817004
    ; U% h  ~8 X2 s. a2 r
  24. Encoding settings                        : cabac=1 / ref=5 / deblock=1:-3:-3 / analyse=0x3:0x133 / me=umh / subme=9 / psy=1 / psy_rd=1.00:0.00 / mixed_ref=1 / me_range=16 / chroma_me=1 / trellis=2 / 8x8dct=1 / cqm=0 / deadzone=21,11 / fast_pskip=0 / chroma_qp_offset=-2 / threads=22 / lookahead_threads=1 / sliced_threads=0 / nr=0 / decimate=1 / interlaced=0 / bluray_compat=0 / constrained_intra=0 / bframes=3 / b_pyramid=2 / b_adapt=1 / b_bias=0 / direct=3 / weightb=1 / open_gop=0 / weightp=2 / keyint=240 / keyint_min=24 / scenecut=40 / intra_refresh=0 / rc_lookahead=50 / rc=2pass / mbtree=1 / bitrate=6174 / ratetol=1.0 / qcomp=0.60 / qpmin=0 / qpmax=69 / qpstep=4 / cplxblur=20.0 / qblur=0.5 / ip_ratio=1.40 / aq=1:1.00% ^+ N2 _) n% X' }7 l
  25. Language                                 : English
    3 f* o) y, T3 i" @
  26. Default                                  : Yes9 F) w! s4 i/ I$ w; D3 @. S
  27. Forced                                   : No+ _, t9 v8 q, [! l' I. A4 H, g; W, n9 _
  28. ' W' G- s/ m& }$ `6 t% D# s
  29. Audio$ @" K; _5 |+ E4 `- r
  30. ID                                       : 29 y" S1 o) O' ?
  31. Format                                   : AC-3
    1 o4 ^4 z; Z1 L& O. i" p
  32. Format/Info                              : Audio Coding 3
    + P$ S) i: C7 @# Y
  33. Commercial name                          : Dolby Digital
    $ G. T; K4 D7 }" i/ W5 \& T. k# M. k
  34. Codec ID                                 : A_AC3" y) j% g7 A  T& `. x/ w! P  _
  35. Duration                                 : 1 h 31 min5 [# U: ~" `, Z0 k! O: z9 @
  36. Bit rate mode                            : Constant
    4 D) w$ Z9 w$ J0 B' `% \. I
  37. Bit rate                                 : 640 kb/s
    $ N6 H% q2 a6 e3 e6 K/ s8 n
  38. Channel(s)                               : 6 channels
    7 v, y; C7 _, X6 h  ]2 Z
  39. Channel layout                           : L R C LFE Ls Rs. I& m- I3 v$ M$ o/ p
  40. Sampling rate                            : 48.0 kHz
    5 Z7 h+ j% q. \  h& S. G( s( B
  41. Frame rate                               : 31.250 FPS (1536 SPF)
    1 u" ]5 Z, |$ Q  V0 R+ e
  42. Bit depth                                : 16 bits
    , n+ f' R- ]' K7 j/ y9 u& f
  43. Compression mode                         : Lossy  x0 G3 Z; t+ L/ s. G# G
  44. Stream size                              : 420 MiB (9%)
    1 b) a+ k# s9 O+ `! s: o) X
  45. Language                                 : Chinese$ U; A0 k. O7 L2 a8 p( ~5 @
  46. Service kind                             : Complete Main1 Z+ o& ]( Q% y1 I' ~
  47. Default                                  : Yes
    # U7 j( R( I$ R7 Y1 x
  48. Forced                                   : No
    ( m5 b4 m! Q9 i6 m& ^
  49. ! X7 I& f- W1 l: E" K- ?
  50. Text6 x3 I' I. J( }$ I; A! e/ x9 q
  51. ID                                       : 3
    ( w& W0 X& h: v* j
  52. Format                                   : UTF-8- \  f; j# u+ z" F7 E5 n$ f" D
  53. Codec ID                                 : S_TEXT/UTF8
    ( e9 c4 j; `  ^: O! b4 y& n; g1 T
  54. Codec ID/Info                            : UTF-8 Plain Text0 i+ f* c9 i& g
  55. Duration                                 : 1 h 27 min+ e. K0 O7 a6 E2 j. C- w: P
  56. Bit rate                                 : 43 b/s4 [% X% ?# T& F% G# ~
  57. Count of elements                        : 1066
    # q: t: F/ o+ D9 e
  58. Stream size                              : 28.0 KiB (0%)
    - s  n8 z0 U9 A. F
  59. Title                                    : English Forced
    + o2 e$ \9 A8 f6 e
  60. Language                                 : English( s% _  E1 R. X; z6 b
  61. Default                                  : Yes4 ~& V9 \1 K3 _  A
  62. Forced                                   : Yes( x2 [! R6 U' v! {

  63. 8 O! l! G2 Z) C8 `
  64. Menu) P& X- b5 L  `9 p# @8 u
  65. 00:00:00.000                             : en:00:00:00.000) D  |2 j8 R1 Y* o
  66. 00:06:34.000                             : en:00:06:34.000
    ( B& Z$ f8 B  ~5 }2 y
  67. 00:11:44.000                             : en:00:11:44.0000 p% H$ K5 K0 W
  68. 00:15:12.000                             : en:00:15:12.000: U; X: d) y) t7 C
  69. 00:18:30.000                             : en:00:18:30.0007 q1 C+ @4 \: ~, V9 {8 T; k
  70. 00:23:42.000                             : en:00:23:42.000
    9 ^# l; F# n1 ]8 [$ u  ?
  71. 00:26:16.000                             : en:00:26:16.000
    , B' Z" e( J* z
  72. 00:31:00.000                             : en:00:31:00.000
    5 L7 B7 }) F$ ?/ S
  73. 00:36:48.000                             : en:00:36:48.0008 G/ M: ?% z8 m
  74. 00:40:53.000                             : en:00:40:53.000
    ' n8 x; h' {2 l8 _0 y
  75. 00:45:48.000                             : en:00:45:48.000
    ) |: l1 ^1 f4 b
  76. 00:50:18.000                             : en:00:50:18.000; t4 W* Q) `& t. h1 m6 X' M1 l
  77. 00:54:44.000                             : en:00:54:44.000
    8 j$ q8 L" H4 o' k) Z8 y
  78. 01:00:49.000                             : en:01:00:49.000- y  S  ^, c6 n& e* V- K1 G7 t
  79. 01:07:13.000                             : en:01:07:13.0009 }  o$ c. s2 Y9 Y! i& c+ U
  80. 01:11:05.000                             : en:01:11:05.0007 A& |# u8 X! w2 F: Y) I
  81. 01:17:30.000                             : en:01:17:30.000
    7 P8 t+ h" C& [
  82. 01:21:55.000                             : en:01:21:55.000
    : e( n5 y; E0 u6 f5 S
  83. 01:25:24.000                             : en:01:25:24.000+ i5 w6 H! A) D
  84. 01:28:59.000                             : en:01:28:59.000
复制代码

8 q8 y2 z; u  W) u4 s3 P 大搜寻之女 Lady.Cop.and.Papa.Crook.2008.THEATRiCAL.720p.BluRay.x264-REGRET 4.38GB-2.png 大搜寻之女 Lady.Cop.and.Papa.Crook.2008.THEATRiCAL.720p.BluRay.x264-REGRET 4.38GB-3.png 大搜寻之女 Lady.Cop.and.Papa.Crook.2008.THEATRiCAL.720p.BluRay.x264-REGRET 4.38GB-4.png
( N% m6 X; a1 B( e# l9 O
& W+ ]2 p% {. z/ D0 x& r. D# a- n2 V
. E/ z/ t. U# g: `
# k/ L5 ^' P( q& b0 B
8 J4 a  @- r% T1 @  ^7 p
, l8 @) O5 [) v$ ]. G8 C
  g5 H; ]% `7 K( J9 i. x2 w
9 h8 ^  k. C1 e# e4 E; J
VIP会员免费任意下载本站所有资源!---点击开通
回复

使用道具 举报

级别:一线明星 Lv.8

注册时间
2019-4-24
最后登录
2019-12-10
听众
14
收听
0
主题
0
蓝光币
214 枚
贡献
0 点
发表于 7 天前 | 显示全部楼层
楼主发贴辛苦了,谢谢楼主分享!我觉得中国高清电影网是注册对了!
VIP会员免费任意下载本站所有资源!---点击开通
回复

使用道具 举报

懒得打字嘛,点击右侧快捷回复 【右侧内容,后台自定义】
您需要登录后才可以回帖 登录 | 立即注册

本版积分规则

QQ|Archiver|手机版|小黑屋| 中国高清网 |网站地图

GMT+8, 2019-12-10 15:27 , Processed in 0.228180 second(s), 37 queries .

Powered by HDchina X3.4

Copyright 2017-2019©HDchina.All right reserved

返回顶部 联系我们