查看: 31|回复: 0

[REMUX.HEVC] 小丑回魂2 It.Chapter.Two.2019.2160p.BluRay.REMUX.HEVC.DTS-HD.MA.TrueHD.7.1.Atmos-FGT 82.09GB

[复制链接]

 成长值: 3410

级别:资源管理组

注册时间
2017-10-20
最后登录
2019-12-10
听众
1
收听
0
主题
88361
蓝光币
69816 枚
贡献
12723 点
发表于 2019-12-2 20:52:18 | 显示全部楼层 |阅读模式
小丑回魂2 It.Chapter.Two.2019.2160p.BluRay.REMUX.HEVC.DTS-HD.MA.TrueHD.7.1.Atmos-FGT 82.09GB-1.png

译  名 小丑回魂2 / It 2 / 它:第二章(台)
片  名 It: Chapter Two
年  代 2019
产  地 美国
类  别 可骇
语  言 英语
上映日期 2019-09-06(美国)
IMDb评分  7.0/10 from 82324 users
IMDb链接  http://www.imdb.com/title/tt7349950
豆瓣评分 6.6/10 from 5037 users
豆瓣链接 https://movie.douban.com/subject/27133569/
片  长 169分钟
导  演 安德斯·穆斯切蒂 Andrés Muschietti
编  剧 加里·多伯曼 Gary Dauberman / 斯蒂芬·金 Stephen King
主  演 詹姆斯·麦卡沃伊 James McAvoy
       杰西卡·查斯坦 Jessica Chastain
       比尔·斯卡斯加德 Bill Skarsg?rd
       比尔·哈德尔 Bill Hader
       索菲娅·莉莉丝 Sophia Lillis
       杰克·迪伦·格雷泽 Jack Dylan Grazer
       菲恩·伍法德 Finn Wolfhard
       杰登·马泰尔 Jaeden Martell
       特洛伊·詹姆斯 Troy James
       哈维尔·博泰特 Javier Botet
       杰·瑞恩 Jay Ryan
       斯蒂芬·金 Stephen King
       杰克逊·罗伯特·斯科特 Jackson Robert Scott
       杰里米·雷·泰勒 Jeremy Ray Taylor
       泽维尔·多兰 Xavier Dolan
       杰克·威利 Jake Weary
       尼古拉斯·汉密尔顿 Nicholas Hamilton
       杰丝·威克斯勒 Jess Weixler
       詹姆斯·兰索恩 James Ransone
       瓦耶特·奥莱夫 Wyatt Oleff
       欧文·泰格 Owen Teague
       艾赛亚·穆斯塔法 Isaiah Mustafa
       安迪·比恩 Andy Bean
       蒂奇·格兰特 Teach Grant
       泰勒·飞瑞 Taylor Frey
       贾森·福克斯 Jason Fuchs
       乔森·雅各布 Chosen Jacobs
       斯蒂夫·博加尔特 Stephen Bogaert
       洛根·汤普森 Logan Thompson
       杰克·辛 Jake Sim
       维尔·贝布林克 Will Beinbrink
       安东尼·尤埃西 Anthony Ulc


标  签 可骇 | 惊悚 | 美国 | 2019 | 小说改编 | 超自然 | 典范 | 小丑

简  介  

  故事发生在1989年夏日事务的27年后,失利者俱乐部成员已经长大并搬走了,直到一个不详的电话把他们召回缅因州的德利镇,匹敌他们陈腐、会变形的仇敌—舞蹈小丑潘尼怀斯。
  1. Video #1
  2. ID                                       : 1
  3. Format                                   : HEVC
  4. Format/Info                              : High Efficiency Video Coding
  5. Format profile                           : Main High@L4@High
  6. HDR format                               : SMPTE ST 2094 App 4, Version 1, HDR10+ Profile B compatible
  7. Codec ID                                 : V_MPEGH/ISO/HEVC
  8. Duration                                 : 2 h 49 min
  9. Bit rate                                 : 53.6 Mb/s
  10. Width                                    : 3 840 pixels
  11. Height                                   : 2 160 pixels
  12. Display aspect ratio                     : 16:9
  13. Frame rate mode                          : Constant
  14. Frame rate                               : 23.976 (24000/1001) FPS
  15. Color space                              : YUV
  16. Chroma subsampling                       : 4:2:0 (Type 2)
  17. Bit depth                                : 10 bits
  18. Bits/(Pixel*Frame)                       : 0.270
  19. Stream size                              : 63.4 GiB (77%)
  20. Title                                    : IT.Chapter.Two.2019.2160p.BluRay.REMUX.HEVC.DTS-HD.MA.TrueHD.7.1.Atmos-FGT
  21. Language                                 : English
  22. Default                                  : Yes
  23. Forced                                   : No
  24. Color range                              : Limited
  25. Color primaries                          : BT.2020
  26. Transfer characteristics                 : PQ
  27. Matrix coefficients                      : BT.2020 non-constant
  28. Mastering display color primaries        : Display P3
  29. Mastering display luminance              : min: 0.0050 cd/m2, max: 4000 cd/m2

  30. Video #2
  31. ID                                       : 2
  32. Format                                   : HEVC
  33. Format/Info                              : High Efficiency Video Coding
  34. Format profile                           : Main High@L4@High
  35. HDR format                               : SMPTE ST 2086, HDR10 compatible
  36. Codec ID                                 : V_MPEGH/ISO/HEVC
  37. Duration                                 : 2 h 49 min
  38. Bit rate                                 : 63.5 kb/s
  39. Width                                    : 1 920 pixels
  40. Height                                   : 1 080 pixels
  41. Display aspect ratio                     : 16:9
  42. Frame rate mode                          : Constant
  43. Frame rate                               : 23.976 (24000/1001) FPS
  44. Color space                              : YUV
  45. Chroma subsampling                       : 4:2:0 (Type 2)
  46. Bit depth                                : 10 bits
  47. Bits/(Pixel*Frame)                       : 0.001
  48. Stream size                              : 77.0 MiB (0%)
  49. Title                                    : IT.Chapter.Two.2019.2160p.BluRay.REMUX.HEVC.DTS-HD.MA.TrueHD.7.1.Atmos-FGT
  50. Language                                 : English
  51. Default                                  : No
  52. Forced                                   : No
  53. Color range                              : Limited
  54. Color primaries                          : BT.2020
  55. Transfer characteristics                 : PQ
  56. Matrix coefficients                      : BT.2020 non-constant
  57. Mastering display color primaries        : Display P3
  58. Mastering display luminance              : min: 0.0050 cd/m2, max: 4000 cd/m2

  59. Audio #1
  60. ID                                       : 3
  61. Format                                   : MLP FBA 16-ch
  62. Format/Info                              : Meridian Lossless Packing FBA with 16-channel presentation
  63. Commercial name                          : Dolby TrueHD with Dolby Atmos
  64. Codec ID                                 : A_TRUEHD
  65. Duration                                 : 2 h 49 min
  66. Bit rate mode                            : Variable
  67. Bit rate                                 : 3 408 kb/s
  68. Maximum bit rate                         : 5 559 kb/s
  69. Channel(s)                               : 8 channels
  70. Channel layout                           : L R C LFE Ls Rs Lb Rb
  71. Sampling rate                            : 48.0 kHz
  72. Frame rate                               : 1 200.000 FPS (40 SPF)
  73. Compression mode                         : Lossless
  74. Stream size                              : 4.03 GiB (5%)
  75. Title                                    : IT.Chapter.Two.2019.2160p.BluRay.REMUX.HEVC.DTS-HD.MA.TrueHD.7.1.Atmos-FGT
  76. Language                                 : English
  77. Default                                  : Yes
  78. Forced                                   : No
  79. Number of dynamic objects                : 15
  80. Bed channel count                        : 1 channel
  81. Bed channel configuration                : LFE

  82. Audio #2
  83. ID                                       : 4
  84. Format                                   : DTS XLL
  85. Format/Info                              : Digital Theater Systems
  86. Commercial name                          : DTS-HD Master Audio
  87. Codec ID                                 : A_DTS
  88. Duration                                 : 2 h 49 min
  89. Bit rate mode                            : Variable
  90. Bit rate                                 : 4 093 kb/s
  91. Channel(s)                               : 8 channels
  92. Channel layout                           : C L R LFE Lb Rb Lss Rss
  93. Sampling rate                            : 48.0 kHz
  94. Frame rate                               : 93.750 FPS (512 SPF)
  95. Bit depth                                : 24 bits
  96. Compression mode                         : Lossless
  97. Stream size                              : 4.84 GiB (6%)
  98. Title                                    : IT.Chapter.Two.2019.2160p.BluRay.REMUX.HEVC.DTS-HD.MA.TrueHD.7.1.Atmos-FGT
  99. Language                                 : English
  100. Default                                  : No
  101. Forced                                   : No

  102. Audio #3
  103. ID                                       : 5
  104. Format                                   : AC-3
  105. Format/Info                              : Audio Coding 3
  106. Commercial name                          : Dolby Digital
  107. Codec ID                                 : A_AC3
  108. Duration                                 : 2 h 49 min
  109. Bit rate mode                            : Constant
  110. Bit rate                                 : 640 kb/s
  111. Channel(s)                               : 6 channels
  112. Channel layout                           : L R C LFE Ls Rs
  113. Sampling rate                            : 48.0 kHz
  114. Frame rate                               : 31.250 FPS (1536 SPF)
  115. Bit depth                                : 16 bits
  116. Compression mode                         : Lossy
  117. Stream size                              : 776 MiB (1%)
  118. Title                                    : IT.Chapter.Two.2019.2160p.BluRay.REMUX.HEVC.DTS-HD.MA.TrueHD.7.1.Atmos-FGT
  119. Language                                 : English
  120. Service kind                             : Complete Main
  121. Default                                  : No
  122. Forced                                   : No

  123. Audio #4
  124. ID                                       : 6
  125. Format                                   : AC-3
  126. Format/Info                              : Audio Coding 3
  127. Commercial name                          : Dolby Digital
  128. Codec ID                                 : A_AC3
  129. Duration                                 : 2 h 49 min
  130. Bit rate mode                            : Constant
  131. Bit rate                                 : 448 kb/s
  132. Channel(s)                               : 6 channels
  133. Channel layout                           : L R C LFE Ls Rs
  134. Sampling rate                            : 48.0 kHz
  135. Frame rate                               : 31.250 FPS (1536 SPF)
  136. Bit depth                                : 16 bits
  137. Compression mode                         : Lossy
  138. Stream size                              : 543 MiB (1%)
  139. Title                                    : IT.Chapter.Two.2019.2160p.BluRay.REMUX.HEVC.DTS-HD.MA.TrueHD.7.1.Atmos-FGT
  140. Language                                 : English
  141. Service kind                             : Complete Main
  142. Default                                  : No
  143. Forced                                   : No

  144. Audio #5
  145. ID                                       : 7
  146. Format                                   : AC-3
  147. Format/Info                              : Audio Coding 3
  148. Commercial name                          : Dolby Digital
  149. Codec ID                                 : A_AC3
  150. Duration                                 : 2 h 49 min
  151. Bit rate mode                            : Constant
  152. Bit rate                                 : 448 kb/s
  153. Channel(s)                               : 6 channels
  154. Channel layout                           : L R C LFE Ls Rs
  155. Sampling rate                            : 48.0 kHz
  156. Frame rate                               : 31.250 FPS (1536 SPF)
  157. Bit depth                                : 16 bits
  158. Compression mode                         : Lossy
  159. Stream size                              : 543 MiB (1%)
  160. Title                                    : IT.Chapter.Two.2019.2160p.BluRay.REMUX.HEVC.DTS-HD.MA.TrueHD.7.1.Atmos-FGT
  161. Language            
复制代码

小丑回魂2 It.Chapter.Two.2019.2160p.BluRay.REMUX.HEVC.DTS-HD.MA.TrueHD.7.1.Atmos-FGT 82.09GB-1.png 小丑回魂2 It.Chapter.Two.2019.2160p.BluRay.REMUX.HEVC.DTS-HD.MA.TrueHD.7.1.Atmos-FGT 82.09GB-3.png 小丑回魂2 It.Chapter.Two.2019.2160p.BluRay.REMUX.HEVC.DTS-HD.MA.TrueHD.7.1.Atmos-FGT 82.09GB-2.png







本帖隐藏的下载地址需要VIP会员才可阅读,您需要升级才可阅读,点击这里升级VIP
VIP会员免费任意下载本站所有资源!---点击开通
回复

使用道具 举报

懒得打字嘛,点击右侧快捷回复 【右侧内容,后台自定义】
您需要登录后才可以回帖 登录 | 立即注册

本版积分规则

QQ|Archiver|手机版|小黑屋| 中国高清网 |网站地图

GMT+8, 2019-12-10 15:42 , Processed in 0.239354 second(s), 37 queries .

Powered by HDchina X3.4

Copyright 2017-2019©HDchina.All right reserved

返回顶部 联系我们