查看: 30|回复: 1

[科幻片] 哥斯拉 Godzilla.1954.Criterion.720p.BluRay.x264-JRP 5.47GB

[复制链接]

 成长值: 3410

级别:资源管理组

注册时间
2017-10-20
最后登录
2019-12-10
听众
1
收听
0
主题
88361
蓝光币
69838 枚
贡献
12723 点
发表于 2019-12-2 20:43:07 | 显示全部楼层 |阅读模式
哥斯拉 Godzilla.1954.Criterion.720p.BluRay.x264-JRP 5.47GB-1.png & H: F" T3 S- t

* H8 v9 j! D! i  E译  名 哥斯拉 / Godzilla / Gojira / 原子恐龙 / 哥吉拉 / 哥吉拉的诞生(台) / 哥斯拉之诞生 / 大恐龙
8 r8 n5 v4 {  G, @3 T( P片  名 ゴジラ! Z/ w9 w  a. V; b3 ^
年  代 19545 J5 b4 \% Y6 l% y
产  地 日本/ U: j% \7 S! s% d7 X
类  别 剧情 / 科幻 / 可骇% X# \/ g0 `* k$ R. k# K8 z5 [. ~
语  言 日语/ }+ T, r3 {& f8 Q* j
上映日期 1954-11-03
5 e/ j; u. }, p7 [1 S1 IIMDb评分  7.6/10 from 26476 users" v; z+ _7 M* J: p/ F
IMDb链接  https://www.imdb.com/title/tt00470343 n" j, R% ]" d: @
豆瓣评分 7.5/10 from 2525 users& C$ x4 [4 r' u" ]( p
豆瓣链接 https://movie.douban.com/subject/2059276/
; v# t$ b; ]: r7 K: i1 ]片  长 96 分钟8 \) J5 I4 Q8 Z5 U, `& P
导  演 本多猪四郎  Ishir? Honda  p9 h! k" n) n& h& {
编  剧 村田武雄 Takeo Murata / 本多猪四郎  Ishir? Honda+ Y& S3 N7 q6 B- f+ R8 U2 }4 P
主  演 宝田明 Akira Takarada
7 r8 f; B5 b: O       河内桃子
  s8 B; J0 t5 y* w       平田昭彦 Akihiko Hirata' b! {% a' e' g* e; y
       志村乔 Takashi Shimura
7 u. V( T; l. X3 p7 m( z       堺左千夫 Sachio Sakai
% L# J+ [  C- P& F5 l4 D
* F+ A6 W. V* s+ K3 p, C7 G8 l8 u8 v/ i/ Y5 p( w
标  签 日本 | 科幻 | 灾难 | 日本电影 | 本多猪四郎 | 哥斯拉 | 1954 | 1950s3 F" x" ^! O: {( `7 f( v
" u- ~2 O* V7 D! h8 x0 M9 u
简  介  
' K% T5 F% x" {/ A8 D' `% C9 ]: }( e$ l  ~$ x4 P2 _
  二战竣事后未几,日本南海惊现古怪事务,打捞船荣子丸在安静的海面上忽然遇难,幸存者寥寥,前往搜救的宾果丸也一去不返。未几,南海四周的岛屿大户岛遭遭到可骇的攻击,岛上的老人宣称这即是传闻中的怪兽哥斯拉捣蛋。古生物专家山根京平教授受命前往观察,按照现场遗留的痕迹判定,这个怪物是200万年前侏罗纪时代存活下来的恐龙,而且在原子弹辐射的影响下,化身为更具破坏力的可骇怪兽。该结论一经公布,便在日本国内引发轩然大波。政客和军队纷纷行动,意欲置哥斯拉于死地。而哥斯拉也闯入东京,停止一场扑灭性的破坏。人类的命运悬于一线……+ K: x* H- z! [; h+ Y: _0 A
  本片按照香山滋的科幻小说改编。7 G+ V% Y2 h+ Z+ @4 X! Y
  1. Video/ N2 u: F: _. Q& i* f5 p) m. o6 b
  2. ID                                       : 1( m$ p# D! u! n" w
  3. Format                                   : AVC' f3 V- V2 Z, |3 k" v& f1 y3 t) _; A
  4. Format/Info                              : Advanced Video Codec
    ' _0 Y! b& X7 t5 g
  5. Format profile                           : High@L4$ P. E/ _1 j0 B
  6. Format settings                          : CABAC / 5 Ref Frames& q4 Y, Z: B% S- _- s$ y" V
  7. Format settings, CABAC                   : Yes/ {- @& v2 j3 k2 T# W
  8. Format settings, Reference frames        : 5 frames" c8 s8 t! N: w0 g- f# J+ Q, t6 X0 e% J
  9. Codec ID                                 : V_MPEG4/ISO/AVC5 u: E; ?- l* ^# W( I
  10. Duration                                 : 1 h 36 min
    * f& a, z% Y' S( B/ D! C- J
  11. Bit rate                                 : 7 572 kb/s
    & j# T: u0 P# D$ B1 X6 n$ }
  12. Width                                    : 960 pixels
    + S! K: c& U- e2 s. C7 L
  13. Height                                   : 720 pixels7 ^8 G! ~( u6 D# h
  14. Display aspect ratio                     : 4:3
    - v0 ~# h0 X- O" w4 v5 G' t& m# R
  15. Frame rate mode                          : Constant
    5 [! o" Q; c. V$ C- C. r0 k  |2 X$ d" E
  16. Frame rate                               : 23.976 FPS: C# H4 E! M" R1 S  {+ y7 ?9 O9 U
  17. Color space                              : YUV
    ( m/ O( D8 o* T
  18. Chroma subsampling                       : 4:2:0& {$ e0 F, k( e+ u% H4 s
  19. Bit depth                                : 8 bits& G! q! w% W- ^' Y* E4 p8 e1 G
  20. Scan type                                : Progressive; U2 |1 V/ k" T) K9 S1 R
  21. Bits/(Pixel*Frame)                       : 0.457
    1 a' D3 X# T6 p* Q) h" N
  22. Stream size                              : 5.11 GiB (93%)+ J7 E% b  d6 r" v
  23. Writing library                          : x264 core 158 r2984 3759fcb
    & V9 M: O( y: g& b( r  M9 F: z6 b
  24. Encoding settings                        : cabac=1 / ref=5 / deblock=1:0:0 / analyse=0x3:0x133 / me=umh / subme=7 / psy=1 / psy_rd=1.00:0.00 / mixed_ref=1 / me_range=16 / chroma_me=1 / trellis=2 / 8x8dct=1 / cqm=0 / deadzone=21,11 / fast_pskip=0 / chroma_qp_offset=-2 / threads=12 / lookahead_threads=2 / sliced_threads=0 / nr=0 / decimate=1 / interlaced=0 / bluray_compat=0 / constrained_intra=0 / bframes=3 / b_pyramid=2 / b_adapt=1 / b_bias=0 / direct=3 / weightb=1 / open_gop=0 / weightp=2 / keyint=250 / keyint_min=23 / scenecut=40 / intra_refresh=0 / rc_lookahead=50 / rc=2pass / mbtree=1 / bitrate=7572 / ratetol=1.0 / qcomp=0.60 / qpmin=0 / qpmax=69 / qpstep=4 / cplxblur=20.0 / qblur=0.5 / ip_ratio=1.40 / aq=1:1.00
    ' Z/ h4 K2 g4 I9 @" _" T1 w3 ~
  25. Language                                 : Japanese" b# Z. {# j! K
  26. Default                                  : Yes! c1 B7 y* T; R
  27. Forced                                   : No. ]2 T. @9 z+ k5 M0 P

  28. - l  Z: |5 |! Q1 Z( z# M
  29. Audio* H" B" o1 h% o9 Y; c- a% s
  30. ID                                       : 2- ]) Q$ V# j) o6 k8 r3 q. K% ^
  31. Format                                   : FLAC7 Y( }$ j3 c5 H+ V: }
  32. Format/Info                              : Free Lossless Audio Codec) p) p6 x* i: s) u0 d0 {
  33. Codec ID                                 : A_FLAC. Q3 o% \+ T8 w1 q
  34. Duration                                 : 1 h 36 min
    % `! v# r8 K' j6 u8 p
  35. Bit rate mode                            : Variable* |9 h- n6 R3 ~* B
  36. Bit rate                                 : 532 kb/s
    + e1 E! N9 m. N
  37. Channel(s)                               : 1 channel7 r0 o0 R$ {0 C$ \1 f/ r) J. Q2 _2 @
  38. Channel layout                           : C
    ; ^+ `0 q5 L+ r
  39. Sampling rate                            : 48.0 kHz
    5 ~7 d& C6 v! k
  40. Frame rate                               : 11.719 FPS (4096 SPF)
    1 H9 Y2 L" l* F  O5 J0 ~1 m
  41. Bit depth                                : 24 bits
    - R9 R& j" X4 ^7 v
  42. Compression mode                         : Lossless! N# p8 B: ?; \" h5 e
  43. Stream size                              : 367 MiB (7%)9 F! U" R3 S5 g1 b
  44. Writing library                          : libFLAC 1.3.2 (UTC 2017-01-01)! X: x- P1 y, ~2 F5 W
  45. Language                                 : Japanese
    - U* z1 y' {$ g- ]! k
  46. Default                                  : Yes
      U( S6 G" S4 m6 g( s
  47. Forced                                   : No6 b  ]7 K* `# i
  48. " z9 i0 M$ V; s' N8 T( i
  49. Text  s& F: ^) s' D) ]' Y* N
  50. ID                                       : 3' w4 W+ o+ {4 h9 I  H7 Z* ~0 F5 x" C
  51. Format                                   : UTF-81 }/ I% f. W# A6 q$ h- ]" K! G
  52. Codec ID                                 : S_TEXT/UTF8
    ' W6 r3 D7 P9 S; j3 u1 u
  53. Codec ID/Info                            : UTF-8 Plain Text
    . e1 Z" H+ X4 z- R& L: r& X
  54. Duration                                 : 1 h 36 min
    4 {/ e" B# b/ }/ d
  55. Bit rate                                 : 31 b/s+ K# r2 y  }7 X9 q
  56. Count of elements                        : 721
    8 o  v2 ~* A. k9 s3 u; f
  57. Stream size                              : 22.5 KiB (0%)/ J# d8 c( a- |7 D
  58. Language                                 : English5 _4 T4 B9 |% v! v1 L
  59. Default                                  : Yes/ ~6 R" O7 f6 }) ^( T4 R) W
  60. Forced                                   : No8 ^5 @6 M/ s8 n! Q% a1 S/ s. O$ n( r( g

  61. ! ^9 ^$ I4 o( X
  62. Menu
    $ |8 r, N3 B! n! C7 q; L$ h
  63. 00:00:00.000                             : en:Chapter 019 N) |" p7 L! Q/ p8 J5 B1 f' R
  64. 00:04:41.364                             : en:Chapter 02
    + d0 O1 Z6 j& l5 i2 o( p$ j
  65. 00:08:24.337                             : en:Chapter 03/ p# v: E; A1 w3 ~& K
  66. 00:10:25.958                             : en:Chapter 04* U* ]2 ?) _, M+ z: d* l
  67. 00:15:10.034                             : en:Chapter 05, ^6 M2 i0 t! u( E1 ~
  68. 00:17:17.119                             : en:Chapter 06
    , C* Y, ?. k  S* T0 a' m
  69. 00:21:16.149                             : en:Chapter 07
    ! j& t: Z/ S5 J: a( }
  70. 00:23:35.414                             : en:Chapter 08
    ) ~' H6 Y0 g6 q, S8 ?
  71. 00:28:24.703                             : en:Chapter 09
    + x8 x# e; f0 z$ M5 {/ ~' A; I
  72. 00:32:04.380                             : en:Chapter 10
    # r. C- x* l, f
  73. 00:33:17.036                             : en:Chapter 114 u- ~5 p4 V3 [3 n7 E
  74. 00:37:17.818                             : en:Chapter 12  s; H* `8 D1 ^4 t5 F+ W( N
  75. 00:42:35.469                             : en:Chapter 13
    0 S% N" `: s5 {4 }/ y
  76. 00:48:13.140                             : en:Chapter 14
    ) ?! s3 f# \' z9 g7 Z, [
  77. 00:54:12.249                             : en:Chapter 15
    9 j, \. b" ]' w( ^8 U0 S. Y
  78. 01:00:01.598                             : en:Chapter 16
    . ~% ]: |: U: G) k$ a( n- Z0 S: K
  79. 01:06:19.809                             : en:Chapter 17$ U* G7 x  D/ U0 t$ V% j0 e
  80. 01:09:28.289                             : en:Chapter 18
    0 r' j3 P: l6 J4 I
  81. 01:11:17.898                             : en:Chapter 19" Z. k! S1 f3 u
  82. 01:15:51.880                             : en:Chapter 20
      r0 X4 w( h6 P% }0 ?  @8 h
  83. 01:21:00.689                             : en:Chapter 21
    " L$ ~" y  v- e: h& q: I! l$ _
  84. 01:24:57.675                             : en:Chapter 229 a6 j! D$ v0 k
  85. 01:28:20.461                             : en:Chapter 23
复制代码
5 c2 B0 V+ C* T5 U- Y! f
哥斯拉 Godzilla.1954.Criterion.720p.BluRay.x264-JRP 5.47GB-2.png
& x4 M6 c" f5 P+ M% Z6 I
4 {* B, v, t, z, ^6 o* \
# A/ A4 S  C' N
% e8 W! {2 ^; K* x# S: D7 a, l( [' {5 h& a( ~) f" r
1 ~+ ?% a! K0 \- a/ E% k! i8 |% ~& n: d
. a: l2 b1 u' S2 n: m, ]

/ ^2 w" u8 `/ z" m8 s) X7 q9 g0 s/ w
VIP会员免费任意下载本站所有资源!---点击开通
回复

使用道具 举报

级别:一线明星 Lv.8

注册时间
2019-4-24
最后登录
2019-12-10
听众
14
收听
0
主题
0
蓝光币
214 枚
贡献
0 点
发表于 7 天前 | 显示全部楼层
楼主发贴辛苦了,谢谢楼主分享!我觉得中国高清电影网是注册对了!
VIP会员免费任意下载本站所有资源!---点击开通
回复

使用道具 举报

懒得打字嘛,点击右侧快捷回复 【右侧内容,后台自定义】
您需要登录后才可以回帖 登录 | 立即注册

本版积分规则

QQ|Archiver|手机版|小黑屋| 中国高清网 |网站地图

GMT+8, 2019-12-10 16:57 , Processed in 0.248853 second(s), 37 queries .

Powered by HDchina X3.4

Copyright 2017-2019©HDchina.All right reserved

返回顶部 联系我们