查看: 37|回复: 1

[喜剧片] 大搜查之女 Lady.Cop.and.Papa.Crook.2008.MANDARiN.DUBBED.DC.720p.BluRay.x264-REGRET 4.37GB

[复制链接]

 成长值: 3450

级别:资源管理组

注册时间
2017-10-20
最后登录
2019-12-13
听众
1
收听
0
主题
88439
蓝光币
70819 枚
贡献
12801 点
发表于 2019-12-2 20:36:31 | 显示全部楼层 |阅读模式
大搜寻之女 Lady.Cop.and.Papa.Crook.2008.MANDARiN.DUBBED.DC.720p.BluRay.x264-REGRET 4.37GB-1.png ( M8 O- t4 {( V

+ E& h$ Z* z3 [5 q译  名 Lady Cop & Papa Crook / 大搜寻; }- D* L  O6 n$ }& C! w- |, [
片  名 大搜寻之女' u; v1 ?9 e1 I+ G
年  代 2008: N- R/ V- e6 m2 D1 z1 P  |0 s
产  地 中国香港 / 中国大陆
, O4 x2 X3 e5 _2 v4 P4 \类  别 笑剧 / 惊悚 / 犯罪
" u- M$ s! Q( _& C3 S. ~语  言 粤语 / 普通话0 t0 A  L: X2 i5 M+ }
上映日期 2008-12-24" T- A/ s1 R% v1 o9 Z$ X
IMDb评分  5.2/10 from 269 users
2 k5 E7 \) n) M3 m/ B& }/ lIMDb链接  https://www.imdb.com/title/tt1258130
" R6 z- p! N% z% ?9 O' m, m豆瓣评分 5.9/10 from 18728 users
8 w5 d9 p% |; N: R9 k" ^豆瓣链接 https://movie.douban.com/subject/3136488/9 m/ l3 @3 u* y% s
片  长 92分钟
( ^$ U$ i2 t1 P% c8 B& Q1 h) f导  演 麦兆辉 / 庄文强
, v8 l  d2 l' J) n& h' z/ _" l- I编  剧 麦兆辉 / 庄文强
7 @. W/ H* t5 x$ v# w6 |0 r) V) l主  演 郑秀文4 t( a, ^0 i9 ]
       陈奕迅
* f/ K+ l/ L2 v6 \: j. c/ z+ x       张国立
5 S3 ?9 C/ j* {3 V$ S( v$ V6 F       董勇
2 K' C9 X" f/ \4 a0 Z       杜汶泽4 n4 K" }& X7 a# e* K$ v
       叶璇
( m0 H- H7 u0 z7 R; v* z       徐子珊
% R" k; E7 G  |, U8 f6 {9 U" O       刘浩龙$ W7 @: k8 ?6 B. J
       任贤齐
1 x( ?3 R- L- Z) T: V/ H% W       陈子聪% u, r# B& R0 l- f1 u$ n% \
       黄德斌
' q- f- ^- ?, a( N. l       谭耀文2 T& s8 @) j& y; j, y
       谷祖琳
% c: E" r4 y8 H. t" T* ~" l" Z4 Q, q% b0 D7 r
8 o, j- e9 E9 \. _0 w% v/ g. y' M
标  签 郑秀文 | 陈奕迅 | 香港电影 | 香港 | 麦兆辉 | 警匪 | 2008 | 电影
' z! I# E5 [: {% p5 i
9 p8 Q5 s# R2 P8 s/ K, W简  介  
2 K5 N, l$ b9 w* k. \
( d% Y9 ^  Z* O$ m7 H  33岁还未成婚的香港女警司徒慕莲(郑秀文饰)一向为自己的亲事忧愁。男友十年前的许诺,现在成了她与同事间的笑谈。一日,走私团体的头目霍青松(陈奕迅饰)的儿子被绑架,司徒慕莲受命处置这宗案件。但霍青松一家为避免因走私之事被警方控诉,处处表示出分歧作的态度,而此时司徒慕莲发现自己有了身孕。
/ w# B8 B5 o% m+ [! {' q; e  黑白两道在一间大屋下貌和神离,霍家高低各自心胸暗计,同时,大陆警方也传来了结合破案的消息。作为“剩女”的司徒慕莲、作为差人的司徒慕莲,她到底能否处理眼前面临的一切?$ K9 ^: [) z! c. v# w: d6 R
  1. Video
    ! B3 U4 L7 [+ I: a
  2. ID                                       : 16 z4 i3 Z& a+ t# G# A' b
  3. Format                                   : AVC& I5 v2 h% s( s0 S! k7 g% b
  4. Format/Info                              : Advanced Video Codec4 T2 X; P9 n. z' c& q
  5. Format profile                           : High@L4
    ; p* q0 J2 Y$ Q
  6. Format settings                          : CABAC / 5 Ref Frames5 P8 W- b3 b" A" a- e7 U6 \
  7. Format settings, CABAC                   : Yes1 H& b. c3 X% H/ |" M% X
  8. Format settings, Reference frames        : 5 frames
    . }& n0 ~- D: X3 M  i* l
  9. Codec ID                                 : V_MPEG4/ISO/AVC
    6 i9 P( e4 j9 |2 k* b
  10. Duration                                 : 1 h 38 min& `$ K7 b7 O! F5 w  |4 q
  11. Bit rate                                 : 5 730 kb/s
    ; G! S+ z3 U* g9 G9 C7 E
  12. Width                                    : 1 280 pixels/ J& i$ C- ]$ P
  13. Height                                   : 720 pixels6 A6 J! x' F# L0 o% p0 T" f
  14. Display aspect ratio                     : 16:9
    , c# i9 e' r6 `  o
  15. Frame rate mode                          : Constant
    ; E# l8 Z2 v9 ]4 h. [- d' S
  16. Frame rate                               : 24.000 FPS
    ' U- T4 E- L. L
  17. Color space                              : YUV
    9 z4 B! U3 {- K# W! j5 `
  18. Chroma subsampling                       : 4:2:02 C* B2 m; U5 d
  19. Bit depth                                : 8 bits
    * D" @+ S1 m: D6 u5 a! @- H. b
  20. Scan type                                : Progressive5 N. H0 z- z6 W( W1 V
  21. Bits/(Pixel*Frame)                       : 0.259
    ) u  r0 Y1 ?, p" a+ z" m0 M
  22. Stream size                              : 3.93 GiB (90%)! G8 E& T# E( j  D
  23. Writing library                          : x264 core 158 r2988 7817004
    " X5 y- ?& ]0 j( X0 V3 k  K
  24. Encoding settings                        : cabac=1 / ref=5 / deblock=1:-3:-3 / analyse=0x3:0x133 / me=umh / subme=9 / psy=1 / psy_rd=1.00:0.00 / mixed_ref=1 / me_range=16 / chroma_me=1 / trellis=2 / 8x8dct=1 / cqm=0 / deadzone=21,11 / fast_pskip=0 / chroma_qp_offset=-2 / threads=22 / lookahead_threads=1 / sliced_threads=0 / nr=0 / decimate=1 / interlaced=0 / bluray_compat=0 / constrained_intra=0 / bframes=3 / b_pyramid=2 / b_adapt=1 / b_bias=0 / direct=3 / weightb=1 / open_gop=0 / weightp=2 / keyint=240 / keyint_min=24 / scenecut=40 / intra_refresh=0 / rc_lookahead=50 / rc=2pass / mbtree=1 / bitrate=5730 / ratetol=1.0 / qcomp=0.60 / qpmin=0 / qpmax=69 / qpstep=4 / cplxblur=20.0 / qblur=0.5 / ip_ratio=1.40 / aq=1:1.006 g1 p9 F7 Z  x- f8 d0 _. O
  25. Language                                 : English& ?5 m6 D$ d6 q& c. p5 x1 t
  26. Default                                  : Yes
    9 [4 Q; M+ S: _' M; s& l
  27. Forced                                   : No
    . W9 E" {! L0 G& e6 Q/ J  d  C
  28. " q7 E- v9 l! _5 j* g8 G( ]
  29. Audio9 w( n9 {; l* T1 S
  30. ID                                       : 2
    % J9 n6 z: p! u+ s
  31. Format                                   : AC-3
    2 q+ r/ ~' `1 W' z5 W# k
  32. Format/Info                              : Audio Coding 3
    , }+ t4 t* D2 Q" g: I; w! W) w- S
  33. Commercial name                          : Dolby Digital7 j8 d  `3 Y+ [3 k. @
  34. Codec ID                                 : A_AC34 G7 p  Q4 _2 ~1 K; S
  35. Duration                                 : 1 h 38 min
    8 f- b3 D+ P* ~4 \
  36. Bit rate mode                            : Constant" {' F, h0 ^; r5 @) }! U
  37. Bit rate                                 : 640 kb/s9 P* t  F4 f3 ]" u" T% @
  38. Channel(s)                               : 6 channels
    - j; C, r* A1 M8 n
  39. Channel layout                           : L R C LFE Ls Rs, {: ]  L5 k3 Q! q" d5 S5 F
  40. Sampling rate                            : 48.0 kHz: F0 |/ O9 ^* u6 A3 O' a' a  G
  41. Frame rate                               : 31.250 FPS (1536 SPF)% L8 G4 Q. R  `& l" @( x' I
  42. Bit depth                                : 16 bits- j" ?3 Y3 Z4 F
  43. Compression mode                         : Lossy% J; o0 O6 i: @% J
  44. Stream size                              : 450 MiB (10%)2 C, r! f2 M7 _2 W
  45. Language                                 : Chinese9 U% L1 Z( G3 q  y$ Z, O
  46. Service kind                             : Complete Main4 m4 T. D$ A8 g: s. A+ ^
  47. Default                                  : Yes
    8 S$ J) ^9 s, N4 T* l7 q0 G6 d) z0 N/ f
  48. Forced                                   : No* }, U8 d6 l/ z0 C( [& |

  49. . U- B. [9 I& R8 t! @1 F* O
  50. Menu/ V% D; K# \( }' ]5 z6 m
  51. 00:00:00.000                             : en:00:00:00.000
    . U' q4 Z/ a$ _* ^
  52. 00:06:34.000                             : en:00:06:34.000* Y+ J- d: b& {2 ~+ g: `" G
  53. 00:11:44.000                             : en:00:11:44.000+ p* U5 r7 s; R* _+ H
  54. 00:15:12.000                             : en:00:15:12.0005 u2 J4 t  a4 f/ S: a
  55. 00:18:30.000                             : en:00:18:30.000/ O: `9 L5 U( b/ V3 q
  56. 00:23:42.000                             : en:00:23:42.000
    0 @( m3 y' ]- t! J8 n/ x2 x. _
  57. 00:26:16.000                             : en:00:26:16.0008 z8 G, ^3 ]. P# P) x  S! ]
  58. 00:31:00.000                             : en:00:31:00.0007 `% P7 i2 B" l/ a2 T
  59. 00:36:48.000                             : en:00:36:48.000
    # S, ^' Z) {, @9 a
  60. 00:40:53.000                             : en:00:40:53.000
    5 J4 o) z, M" r& B+ u1 {
  61. 00:45:48.000                             : en:00:45:48.000
    5 q0 P8 R3 y( L$ C
  62. 00:50:18.000                             : en:00:50:18.000
    ( T8 i3 S; j9 d8 L( g
  63. 00:54:44.000                             : en:00:54:44.0008 h( p$ B4 w1 B  q) s/ ^
  64. 01:00:49.000                             : en:01:00:49.000
    9 o+ W; w9 j4 i+ u% K1 P, [: H; J; M
  65. 01:07:13.000                             : en:01:07:13.000
    1 \0 w  Y' a* t
  66. 01:11:05.000                             : en:01:11:05.000. D0 w9 c5 {" }& o/ L+ s: G
  67. 01:17:30.000                             : en:01:17:30.000" k1 \- s; H, |7 n: F/ N
  68. 01:21:55.000                             : en:01:21:55.0008 s5 s( Z7 }& K3 D! t
  69. 01:27:50.708                             : en:01:27:50.708. S+ q7 d& ~! I! [
  70. 01:35:26.000                             : en:01:35:26.000
复制代码

& k+ M. D5 l4 Y1 u 大搜寻之女 Lady.Cop.and.Papa.Crook.2008.MANDARiN.DUBBED.DC.720p.BluRay.x264-REGRET 4.37GB-2.png
7 N1 {6 \. @# d4 {) ~* r" h. m" m- [
8 E$ q; P) z9 X8 M1 J7 w% B/ \+ o0 U! k- M) p
8 e$ N0 R5 U) T( i$ m
4 p- B: Z7 G6 f3 Z) j; V  C2 G. G

7 V; m6 z3 U& Y0 O' `! K
# C1 _; l( |! ^7 |
VIP会员免费任意下载本站所有资源!---点击开通
回复

使用道具 举报

级别:一线明星 Lv.8

注册时间
2019-4-24
最后登录
2019-12-13
听众
14
收听
0
主题
0
蓝光币
218 枚
贡献
0 点
发表于 2019-12-3 08:41:26 | 显示全部楼层
楼主发贴辛苦了,谢谢楼主分享!我觉得中国高清电影网是注册对了!
VIP会员免费任意下载本站所有资源!---点击开通
回复

使用道具 举报

懒得打字嘛,点击右侧快捷回复 【右侧内容,后台自定义】
您需要登录后才可以回帖 登录 | 立即注册

本版积分规则

QQ|Archiver|手机版|小黑屋| 中国高清网 |网站地图

GMT+8, 2019-12-14 07:19 , Processed in 0.260896 second(s), 37 queries .

Powered by HDchina X3.4

Copyright 2017-2019©HDchina.All right reserved

返回顶部 联系我们