查看: 35|回复: 1

[喜剧片] 大搜查之女 Lady.Cop.and.Papa.Crook.2008.MANDARiN.DUBBED.THEATRiCAL.720p.BluRay.x264-REGRET 4.37GB

[复制链接]

 成长值: 3410

级别:资源管理组

注册时间
2017-10-20
最后登录
2019-12-10
听众
1
收听
0
主题
88361
蓝光币
69838 枚
贡献
12723 点
发表于 2019-12-2 20:32:33 | 显示全部楼层 |阅读模式
大搜寻之女 Lady.Cop.and.Papa.Crook.2008.MANDARiN.DUBBED.THEATRiCAL.720p.BluRay.x264-REGRET 4.37GB-1.png
1 ~' h, d7 ]9 k2 C% I1 F, ]* I+ C- |$ _; T
译  名 Lady Cop & Papa Crook / 大搜寻
' w& J& h/ @5 e! \! {' ?8 [. \" Q片  名 大搜寻之女
* W- G1 n9 e, t! U8 T$ |年  代 2008
' z4 H- P* S7 v" V产  地 中国香港 / 中国大陆+ Z0 p9 e; }" J2 s" _
类  别 笑剧 / 惊悚 / 犯罪' k% V9 ?) P( Y" i5 @
语  言 粤语 / 普通话
5 L! q( }! P2 r" m上映日期 2008-12-24- k5 j5 S3 J1 G' l# G
IMDb评分  5.2/10 from 269 users: g9 C9 Q, D+ U0 E; T! c
IMDb链接  https://www.imdb.com/title/tt1258130! a1 G2 G' W" O0 L7 B, x/ m% Y
豆瓣评分 5.9/10 from 18728 users) J( F- a# c$ f+ _3 Q2 t
豆瓣链接 https://movie.douban.com/subject/3136488/3 L5 {8 G0 s/ V! k
片  长 92分钟# W6 [4 m# q" |% d) M1 n) S
导  演 麦兆辉 / 庄文强) j( F- |: V$ F" z8 ^0 |5 _
编  剧 麦兆辉 / 庄文强
6 d8 V; K5 K) K7 `" C主  演 郑秀文0 t; ?9 i) i- ?9 Q7 G
       陈奕迅8 X% [' Q( e& ]' j- C
       张国立
( t- ^  b+ q+ h5 p5 G( p       董勇
# Y6 E6 [+ e. {+ O( O+ k       杜汶泽4 Q. \& i) D8 k; ]! _
       叶璇! Z5 h7 ~  `- ^9 u% D
       徐子珊# i/ [0 }$ y" E1 W5 n
       刘浩龙
& z: h% R% f/ @1 w       任贤齐
; n; A* [" m8 G/ T       陈子聪
' z9 T. ^4 w3 h4 i/ V       黄德斌6 O- W: `6 z& N
       谭耀文
1 s8 U' G( f% m/ K* h       谷祖琳
" X& c3 J( e! Y; B4 h
5 U5 T: K+ g* K0 q: K
- x+ l  I) |; u& z* ~& z9 T标  签 郑秀文 | 陈奕迅 | 香港电影 | 香港 | 麦兆辉 | 警匪 | 2008 | 电影
3 t* f5 s1 K& L; N
. N8 i; s9 c1 Q! p- v5 s2 L/ z简  介  
+ c$ \# p8 R' D: R  b: H$ Y: v2 g* Y5 K: ]) f3 F- Z
  33岁还未成婚的香港女警司徒慕莲(郑秀文饰)一向为自己的亲事忧愁。男友十年前的许诺,现在成了她与同事间的笑谈。一日,走私团体的头目霍青松(陈奕迅饰)的儿子被绑架,司徒慕莲受命处置这宗案件。但霍青松一家为避免因走私之事被警方控诉,处处表示出分歧作的态度,而此时司徒慕莲发现自己有了身孕。6 c  d$ Y* w' k8 g* U8 \
  黑白两道在一间大屋下貌和神离,霍家高低各自心胸暗计,同时,大陆警方也传来了结合破案的消息。作为“剩女”的司徒慕莲、作为差人的司徒慕莲,她到底能否处理眼前面临的一切?4 T: h  H3 e) W( u+ g+ ^8 i9 z
  1. Video) p: N6 m0 l# g9 L3 @# j
  2. ID                                       : 18 V# t" S! Q$ t! O# `
  3. Format                                   : AVC
    5 R! @+ {8 ]  ?
  4. Format/Info                              : Advanced Video Codec
    5 J8 n4 |5 H% l
  5. Format profile                           : High@L4
    . J+ m) f# g4 Z+ x$ a
  6. Format settings                          : CABAC / 5 Ref Frames
    0 E4 S9 j  G& ^  n/ i
  7. Format settings, CABAC                   : Yes
    7 }7 W& e# C& k: Q3 C" [6 h1 ]5 X
  8. Format settings, Reference frames        : 5 frames
    8 Y, j4 ]$ i5 Y) `4 @
  9. Codec ID                                 : V_MPEG4/ISO/AVC: y- L( ^( d, ~* s7 R( A5 f  ?# ~0 {1 R
  10. Duration                                 : 1 h 31 min/ u$ l2 ?! N5 Y4 l. r
  11. Bit rate                                 : 6 174 kb/s
    , U  t" `% k: \( H( O& u% q3 ~* G9 Z! F
  12. Width                                    : 1 280 pixels
    - x! x  j. ^+ v
  13. Height                                   : 720 pixels
    % @. n2 F2 L  O
  14. Display aspect ratio                     : 16:9
    8 w; f% H3 ^! v
  15. Frame rate mode                          : Constant' X  R, e% g" {+ k$ A
  16. Frame rate                               : 24.000 FPS
    * P' q+ Y0 O* Y
  17. Color space                              : YUV
    / C9 ^0 u8 L+ e" b5 f+ D
  18. Chroma subsampling                       : 4:2:0
    8 p& l1 y6 L; b" w7 S5 v
  19. Bit depth                                : 8 bits
    , Y# Q; ?! \$ l2 n2 I7 P
  20. Scan type                                : Progressive
    / o. \' E' E3 L, m0 V
  21. Bits/(Pixel*Frame)                       : 0.279
    " Q% Y( l6 ]- ^7 d
  22. Stream size                              : 3.96 GiB (91%)
    5 Q9 O9 J' d5 T0 H: ]
  23. Writing library                          : x264 core 158 r2988 7817004/ _1 Q3 r3 L( [0 {' n5 s5 a* D5 ~5 H
  24. Encoding settings                        : cabac=1 / ref=5 / deblock=1:-3:-3 / analyse=0x3:0x133 / me=umh / subme=9 / psy=1 / psy_rd=1.00:0.00 / mixed_ref=1 / me_range=16 / chroma_me=1 / trellis=2 / 8x8dct=1 / cqm=0 / deadzone=21,11 / fast_pskip=0 / chroma_qp_offset=-2 / threads=22 / lookahead_threads=1 / sliced_threads=0 / nr=0 / decimate=1 / interlaced=0 / bluray_compat=0 / constrained_intra=0 / bframes=3 / b_pyramid=2 / b_adapt=1 / b_bias=0 / direct=3 / weightb=1 / open_gop=0 / weightp=2 / keyint=240 / keyint_min=24 / scenecut=40 / intra_refresh=0 / rc_lookahead=50 / rc=2pass / mbtree=1 / bitrate=6174 / ratetol=1.0 / qcomp=0.60 / qpmin=0 / qpmax=69 / qpstep=4 / cplxblur=20.0 / qblur=0.5 / ip_ratio=1.40 / aq=1:1.007 I$ j- ]* m+ c. G) A& C# r
  25. Language                                 : English
    ! [# I9 {5 c5 r% v
  26. Default                                  : Yes' m6 g( A9 J, m" {1 ^
  27. Forced                                   : No5 J2 p2 B/ n4 T; g
  28. , ~* ?, A" \0 L( e1 `+ r* \
  29. Audio( Z, [3 r2 R+ [7 x1 I& H
  30. ID                                       : 2
    $ B- @1 o8 \2 x4 H! W" `
  31. Format                                   : AC-34 P4 O, U. i  b3 T0 z. D
  32. Format/Info                              : Audio Coding 3; ^& Z6 {2 r/ m! _; R/ m
  33. Commercial name                          : Dolby Digital
    + Q+ \4 W4 V2 |
  34. Codec ID                                 : A_AC3# L; j: i9 T. R* p
  35. Duration                                 : 1 h 31 min
    $ R0 k6 c1 l& B8 c
  36. Bit rate mode                            : Constant. F8 H/ Q+ ^0 ?1 I6 s$ b
  37. Bit rate                                 : 640 kb/s& {! V! o6 H8 ?4 u( u
  38. Channel(s)                               : 6 channels
    / ?4 A# |  g4 ~% W
  39. Channel layout                           : L R C LFE Ls Rs3 S- j. v1 Q9 r$ g. S2 z
  40. Sampling rate                            : 48.0 kHz" X' g0 z% h5 ]% Y# B
  41. Frame rate                               : 31.250 FPS (1536 SPF)
    . ^% U0 K6 n* G7 z
  42. Bit depth                                : 16 bits5 z0 D) A7 x" t" x% P
  43. Compression mode                         : Lossy# s7 W+ S$ `" z) a3 t7 C3 M+ M6 [2 P& j
  44. Stream size                              : 420 MiB (9%)
    7 J5 E8 P/ ^$ b: ]5 C! t
  45. Language                                 : Chinese
    0 t, i; W% Y- e- `
  46. Service kind                             : Complete Main
    : C% C5 u/ k7 m8 l( a+ w
  47. Default                                  : Yes* E3 x  ]4 D8 f1 ^
  48. Forced                                   : No
    7 e1 ~" q$ x9 ?$ C# i7 J
  49. 9 I. w8 V# I+ h- t
  50. Menu* ^/ n, G3 d1 A
  51. 00:00:00.000                             : en:00:00:00.000/ o5 g! R( K* W' C2 q! B% Y
  52. 00:06:34.000                             : en:00:06:34.000$ y2 L7 H( b0 y9 g- @9 f
  53. 00:11:44.000                             : en:00:11:44.000: Y3 Q$ V* o3 Q1 f7 w
  54. 00:15:12.000                             : en:00:15:12.000
    2 s. e! Z( z4 i, v/ [. v
  55. 00:18:30.000                             : en:00:18:30.000
    # {6 N" \* Y% x" z" c1 ?0 h3 w3 k
  56. 00:23:42.000                             : en:00:23:42.000
    - A8 `2 ~% E) B) K) F
  57. 00:26:16.000                             : en:00:26:16.000& j  }* q- p0 o! H$ p$ d6 E8 |
  58. 00:31:00.000                             : en:00:31:00.0002 |) A) V* V( w  J
  59. 00:36:48.000                             : en:00:36:48.000: ?2 Y1 V- v3 m. z/ d
  60. 00:40:53.000                             : en:00:40:53.000
    ) ]/ s4 G/ r$ F# k, Y# w
  61. 00:45:48.000                             : en:00:45:48.000' \% k( d* {3 f" N( b- p' K" l
  62. 00:50:18.000                             : en:00:50:18.000
    # i/ R* i( _% G" z) C7 E
  63. 00:54:44.000                             : en:00:54:44.000
    $ Y" x: q" u4 D/ t- S
  64. 01:00:49.000                             : en:01:00:49.0005 w. F9 M' o- \; ]; l
  65. 01:07:13.000                             : en:01:07:13.000, Q& x' v+ t4 H" v3 f6 y) ^
  66. 01:11:05.000                             : en:01:11:05.000$ u- S% J! U/ s5 }( V/ Z1 S; T
  67. 01:17:30.000                             : en:01:17:30.000
    ( h, F' X5 \0 _, n
  68. 01:21:55.000                             : en:01:21:55.000
      o$ l9 S7 G* F' B  Y
  69. 01:25:24.000                             : en:01:25:24.000
    1 V; f  K9 Z# \8 R$ v0 H- M) @
  70. 01:28:59.000                             : en:01:28:59.000
复制代码
. `& ?% g& O* d- @$ h
大搜寻之女 Lady.Cop.and.Papa.Crook.2008.MANDARiN.DUBBED.THEATRiCAL.720p.BluRay.x264-REGRET 4.37GB-1.png ( A3 M: w4 m& P  |( J

9 Y+ l& ]4 X! R) S2 u. [) H! f& Y" L: P
0 p' q8 ^4 H+ S

9 @. [5 H+ A- m; d) Q- @5 Q- N+ O' K, F
+ T2 Y, v$ _* v% p+ A

- k; @, p' c* W/ s1 z5 @+ Y
VIP会员免费任意下载本站所有资源!---点击开通
回复

使用道具 举报

级别:一线明星 Lv.8

注册时间
2019-4-24
最后登录
2019-12-10
听众
14
收听
0
主题
0
蓝光币
214 枚
贡献
0 点
发表于 7 天前 | 显示全部楼层
楼主发贴辛苦了,谢谢楼主分享!我觉得中国高清电影网是注册对了!
VIP会员免费任意下载本站所有资源!---点击开通
回复

使用道具 举报

懒得打字嘛,点击右侧快捷回复 【右侧内容,后台自定义】
您需要登录后才可以回帖 登录 | 立即注册

本版积分规则

QQ|Archiver|手机版|小黑屋| 中国高清网 |网站地图

GMT+8, 2019-12-10 16:56 , Processed in 0.319672 second(s), 37 queries .

Powered by HDchina X3.4

Copyright 2017-2019©HDchina.All right reserved

返回顶部 联系我们