查看: 95|回复: 1

[10bit.SDR] 好莱坞往事 Once.Upon.a.Time.in.Hollywood.2019.2160p.BluRay.x265.10bit.SDR.DTS-HD.MA.7.1-SWTYBLZ 47.91GB

[复制链接]

 成长值: 3450

级别:资源管理组

注册时间
2017-10-20
最后登录
2019-12-13
听众
1
收听
0
主题
88439
蓝光币
70821 枚
贡献
12801 点
发表于 2019-11-30 22:06:58 | 显示全部楼层 |阅读模式
好莱坞往事 Once.Upon.a.Time.in.Hollywood.2019.2160p.BluRay.x265.10bit.SDR.DTS-HD.MA.7.1-SWTYBLZ 47.91GB-1.png

◎译  名 好莱坞往事 / Once Upon a Time in Hollywood / Once Upon a Time in… Hollywood / 畴前,有个好莱坞...(台) / 畴前,有个荷里活(港) / 好莱坞杀人事务 / 荷里活往事
◎片  名 Once Upon a Time... in Hollywood
◎年  代 2019
◎产  地 英国 / 美国 / 中国大陆
◎类  别 剧情 / 笑剧
◎语  言 英语
◎上映日期 2019(中国大陆) / 2019-05-21(戛纳电影节) / 2019-07-26(美国)
◎IMDb评分 8.0/10 from 228656 users
◎IMDb链接 https://www.imdb.com/title/tt7131622
◎豆瓣评分 7.5/10 from 16309 users
◎豆瓣链接 https://movie.douban.com/subject/27087724/
◎片  长 165分钟
◎导  演 昆汀·塔伦蒂诺 Quentin Tarantino
◎编  剧 昆汀·塔伦蒂诺 Quentin Tarantino
◎主  演 莱昂纳多·迪卡普里奥 Leonardo DiCaprio
      布拉德·皮特 Brad Pitt
      玛格特·罗比 Margot Robbie
      埃米尔·赫斯基 Emile Hirsch
      玛格丽特·库里 Margaret Qualley
      蒂莫西·奥利芬特 Timothy Olyphant
      茱莉亚·巴特斯 Julia Butters
      奥斯汀·巴特勒 Austin Butler
      达科塔·范宁 Dakota Fanning
      布鲁斯·邓恩 Bruce Dern
      麦克·莫 Mike Moh
      卢克·贝里 Luke Perry
      戴米恩·路易斯 Damian Lewis
      库尔特·拉塞尔 Kurt Russell
      阿尔·帕西诺 Al Pacino
      玛雅·霍克 Maya Hawke
      西德妮·斯维尼 Sydney Sweeney
      哈莉·奎恩·史姑娘 Harley Quinn Smith
      达蒙·海瑞曼 Damon Herriman
      凯特·贝兰特 Kate Berlant
      洛伦扎·伊佐 Lorenza Izzo
      迈克尔·马德森 Michael Madsen
      拉莫·威利斯 Rumer Willis
      斯科特·麦克纳里 Scoot McNairy
      小克利夫顿·克林斯 Clifton Collins Jr.
      维多利亚·佩德雷蒂 Victoria Pedretti
      吕蓓卡·盖哈特 Rebecca Gayheart
      佐伊·贝尔 Zoe Bell
      莱斯利·贝加 Leslie Bega
      瑞贝卡·瑞滕豪斯 Rebecca Rittenhouse
      萨曼莎·罗宾森 Samantha Robinson
      莉娜·邓纳姆 Lena Dunham
      德瑞玛·沃克 Dreama Walker
      克鲁·古拉格 Clu Gulager
      丹妮拉·皮克 Daniela Pick
      布伦达·瓦卡罗 Brenda Vaccaro
      尼古拉斯·哈蒙德 Nicholas Hammond
      米奇·麦迪森 Mikey Madison
      詹姆斯·兰德里·赫伯特 James Landry Hébert
      妮可·加利西亚 Nichole Galicia
      麦迪逊·贝蒂 Madisen Beaty
      佩内洛普·卡普迪雅 Penelope Kapudija
      莫里斯·孔特 Maurice Compte
      科斯塔·罗宁 Costa Ronin
      卢·坦普尔 Lew Temple
      斯宾塞·加雷特 Spencer Garrett
      Brianna Joy Chomer
      奥玛·杜姆 Omar Doom
      娜塔莉·科恩 Natalie Cohen
      拉法尔·扎维鲁查 Rafal Zawierucha
      马尔科·罗德里格斯 Marco Rodríguez
      Kansas Skye
      维森特·拉雷斯卡 Vincent Laresca
      殷巴尔·阿米拉夫 Inbal Amirav
      拉蒙·弗兰克 Ramón Franco
      莫妮卡·斯塔吉丝 Monica Staggs
      克雷格·斯塔克 Craig Stark
      大卫·斯廷 David Steen
      朱丽叶·吉达 Juliette Kida
      埃迪·佩雷斯 Eddie Perez
      布蕾迪·拉多娜 Bridie Latona
      凯拉·拉多姆斯基 Kayla Radomski
      布里安娜·温 Breanna Wing
      Carolina Vargas
      Gary Private


◎标  签 美国 | 犯罪 | 剧情 | 2019 | 黑色诙谐 | 惊悚 | 列传 | 实在事务改编

◎简  介

  故事在1969年瞬息万变的洛杉矶展开,在阿谁如火如荼的变化时代,嬉皮文化流行,好莱坞大制片厂制度崩溃,新的好莱坞明星纷纷突起。电视明星里克·道尔顿(莱昂纳多·迪卡普里奥 Leonardo DiCaprio饰)与他持久合作替人同伴克里夫·布斯(布拉德·皮特 Brad Pitt 饰)若何在逐步陌生的文娱圈里,找到自己的一席之地。他们正力图扬名电影圈,却发现这个行业早已不是他们设想的样子了…… 这是昆汀自编自导第9部影片,聚集星光闪闪的卡司与交织的情节,纪念好莱坞不再复返的黄金年月。

◎获奖情况

  第72届戛纳电影节(2019)
  主比赛单元 金棕榈奖(提名) 昆汀·塔伦蒂诺

  第72届洛迦诺国际电影节(2019)
  Variety Piazza Grande Award(提名) 昆汀·塔伦蒂诺

  第7届美国化装及发型设想工会奖(2020)
  电影类最好年月戏化装(提名)
  电影类最好年月戏发型设想(提名)

  第5届豆瓣电影年度榜单(2018)
  最值得期待的外语电影(提名)
  1. Video
  2. ID : 1
  3. Format : HEVC
  4. Format/Info : High Efficiency Video Coding
  5. Format profile : Main [email]10@L5.1[/email]@High
  6. Codec ID : V_MPEGH/ISO/HEVC
  7. Duration : 2 h 41 min
  8. Bit rate : 38.7 Mb/s
  9. Width : 3 840 pixels
  10. Height : 1 600 pixels
  11. Display aspect ratio : 2.40:1
  12. Frame rate mode : Constant
  13. Frame rate : 23.976 (24000/1001) FPS
  14. Color space : YUV
  15. Chroma subsampling : 4:2:0
  16. Bit depth : 10 bits
  17. Bits/(Pixel*Frame) : 0.263
  18. Stream size : 43.7 GiB (91%)
  19. Title : Once.Upon.a.Time.in.Hollywood.2019.2160p.BluRay.x265.10bit.SDR.DTS-HD.MA.7.1-SWTYBLZ
  20. Writing library : x265 3.0ed72af837053:[Windows][GCC 8.2.0][64 bit] 10bit
  21. Encoding settings : cpuid=1111039 / frame-threads=16 / numa-pools=44,44 / wpp / no-pmode / no-pme / no-psnr / no-ssim / log-level=2 / input-csp=1 / input-res=3840x1600 / interlace=0 / total-frames=232320 / level-idc=51 / high-tier=1 / uhd-bd=0 / ref=3 / no-allow-non-conformance / repeat-headers / annexb / aud / hrd / info / hash=0 / no-temporal-layers / no-open-gop / min-keyint=1 / keyint=24 / gop-lookahead=0 / bframes=4 / b-adapt=2 / b-pyramid / bframe-bias=0 / rc-lookahead=25 / lookahead-slices=4 / scenecut=40 / radl=0 / no-splice / no-intra-refresh / ctu=64 / min-cu-size=8 / no-rect / no-amp / max-tu-size=32 / tu-inter-depth=1 / tu-intra-depth=1 / limit-tu=0 / rdoq-level=0 / dynamic-rd=0.00 / no-ssim-rd / signhide / no-tskip / nr-intra=0 / nr-inter=0 / no-constrained-intra / strong-intra-smoothing / max-merge=2 / limit-refs=3 / no-limit-modes / me=1 / subme=2 / merange=57 / temporal-mvp / weightp / no-weightb / no-analyze-src-pics / deblock=0:0 / no-sao / no-sao-non-deblock / rd=3 / no-early-skip / rskip / no-fast-intra / no-tskip-fast / no-cu-lossless / no-b-intra / no-splitrd-skip / rdpenalty=0 / psy-rd=2.00 / psy-rdoq=0.00 / no-rd-refine / no-lossless / cbqpoffs=0 / crqpoffs=0 / rc=crf / crf=16.0 / qcomp=0.60 / qpstep=4 / stats-write=0 / stats-read=0 / vbv-maxrate=160000 / vbv-bufsize=160000 / vbv-init=0.9 / crf-max=0.0 / crf-min=0.0 / ipratio=1.40 / pbratio=1.30 / aq-mode=1 / aq-strength=1.00 / cutree / zone-count=0 / no-strict-cbr / qg-size=32 / no-rc-grain / qpmax=69 / qpmin=0 / no-const-vbv / sar=1 / overscan=0 / videoformat=5 / range=0 / colorprim=2 / transfer=2 / colormatrix=2 / chromaloc=0 / display-window=0 / max-cll=0,0 / min-luma=0 / max-luma=1023 / log2-max-poc-lsb=8 / vui-timing-info / vui-hrd-info / slices=1 / opt-qp-pps / opt-ref-list-length-pps / no-multi-pass-opt-rps / scenecut-bias=0.05 / no-opt-cu-delta-qp / no-aq-motion / no-hdr / no-hdr-opt / no-dhdr10-opt / no-idr-recovery-sei / analysis-reuse-level=5 / scale-factor=0 / refine-intra=0 / refine-inter=0 / refine-mv=0 / refine-ctu-distortion=0 / no-limit-sao / ctu-info=0 / no-lowpass-dct / refine-analysis-type=0 / copy-pic=1 / max-ausize-factor=1.0 / no-dynamic-refine / no-single-sei / no-hevc-aq / qp-adaptation-range=1.00
  22. Default : Yes
  23. Forced : No

  24. Audio #1
  25. ID : 2
  26. Format : DTS XLL
  27. Format/Info : Digital Theater Systems
  28. Commercial name : DTS-HD Master Audio
  29. Codec ID : A_DTS
  30. Duration : 2 h 41 min
  31. Bit rate mode : Variable
  32. Bit rate : 2 560 kb/s
  33. Channel(s) : 8 channels
  34. Channel layout : C L R LFE Lb Rb Lss Rss
  35. Sampling rate : 48.0 kHz
  36. Frame rate : 93.750 FPS (512 SPF)
  37. Bit depth : 16 bits
  38. Compression mode : Lossless
  39. Stream size : 2.89 GiB (6%)
  40. Title : Once.Upon.a.Time.in.Hollywood.2019.2160p.BluRay.x265.10bit.SDR.DTS-HD.MA.7.1-SWTYBLZ
  41. Language : English
  42. Default : Yes
  43. Forced : No

  44. Audio #2
  45. ID : 3
  46. Format : AC-3
  47. Format/Info : Audio Coding 3
  48. Commercial name : Dolby Digital
  49. Codec ID : A_AC3
  50. Duration : 2 h 41 min
  51. Bit rate mode : Constant
  52. Bit rate : 640 kb/s
  53. Channel(s) : 6 channels
  54. Channel layout : L R C LFE Ls Rs
  55. Sampling rate : 48.0 kHz
  56. Frame rate : 31.250 FPS (1536 SPF)
  57. Bit depth : 16 bits
  58. Compression mode : Lossy
  59. Stream size : 739 MiB (2%)
  60. Title : Once.Upon.a.Time.in.Hollywood.2019.2160p.BluRay.x265.10bit.SDR.DTS-HD.MA.7.1-SWTYBLZ
  61. Language : English
  62. Service kind : Complete Main
  63. Default : No
  64. Forced : No

  65. Text #1
  66. ID : 4
  67. Format : UTF-8
  68. Codec ID : S_TEXT/UTF8
  69. Codec ID/Info : UTF-8 Plain Text
  70. Duration : 2 h 39 min
  71. Bit rate : 56 b/s
  72. Count of elements : 2130
  73. Stream size : 65.8 KiB (0%)
  74. Title : English-SRT
  75. Language : English
  76. Default : Yes
  77. Forced : No

  78. Text #2
  79. ID : 5
  80. Format : UTF-8
  81. Codec ID : S_TEXT/UTF8
  82. Codec ID/Info : UTF-8 Plain Text
  83. Duration : 2 h 40 min
  84. Bit rate : 64 b/s
  85. Count of elements : 2542
  86. Stream size : 76.3 KiB (0%)
  87. Title : English-SDH-SRT
  88. Language : English
  89. Default : No
  90. Forced : No

  91. Text #3
  92. ID : 6
  93. Format : PGS
  94. Muxing mode : zlib
  95. Codec ID : S_HDMV/PGS
  96. Codec ID/Info : Picture based subtitle format used on BDs/HD-DVDs
  97. Duration : 2 h 40 min
  98. Bit rate : 37.2 kb/s
  99. Count of elements : 4116
  100. Stream size : 42.8 MiB (0%)
  101. Title : English-SDH-PGS
  102. Language : English
  103. Default : No
  104. Forced : No

  105. Text #4
  106. ID : 7
  107. Format : PGS
  108. Muxing mode : zlib
  109. Codec ID : S_HDMV/PGS
  110. Codec ID/Info : Picture based subtitle format used on BDs/HD-DVDs
  111. Duration : 2 h 39 min
  112. Bit rate : 33.7 kb/s
  113. Count of elements : 3588
  114. Stream size : 38.4 MiB (0%)
  115. Title : English-PGS
  116. Language : English
  117. Default : No
  118. Forced : No

  119. Text #5
  120. ID : 8
  121. Format : PGS
  122. Muxing mode : zlib
  123. Codec ID : S_HDMV/PGS
  124. Codec ID/Info : Picture based subtitle format used on BDs/HD-DVDs
  125. Duration : 2 h 40 min
  126. Bit rate : 37.2 kb/s
  127. Count of elements : 4116
  128. Stream size : 42.8 MiB (0%)
  129. Title : English-SDH-PGS
  130. Language : English
  131. Default : No
  132. Forced : No

  133. Text #6
  134. ID : 9
  135. Format : PGS
  136. Muxing mode : zlib
  137. Codec ID : S_HDMV/PGS
  138. Codec ID/Info : Picture based subtitle format used on BDs/HD-DVDs
  139. Duration : 2 h 39 min
  140. Bit rate : 33.7 kb/s
  141. Count of elements : 3588
  142. Stream size : 38.4 MiB (0%)
  143. Title : English-PGS
  144. Language : English
  145. Default : No
  146. Forced : No

  147. Text #7
  148. ID : 10
  149. Format : PGS
  150. Muxing mode : zlib
  151. Codec ID : S_HDMV/PGS
  152. Codec ID/Info : Picture based subtitle format used on BDs/HD-DVDs
  153. Duration : 2 h 40 min
  154. Bit rate : 16.4 kb/s
  155. Count of elements : 3499
  156. Stream size : 18.9 MiB (0%)
  157. Title : Arabic-PGS
  158. Language : Arabic
  159. Default : No
  160. Forced : No

  161. Text #8
  162. ID : 11
  163. Format : PGS
  164. Muxing mode : zlib
  165. Codec ID : S_HDMV/PGS
  166. Codec ID/Info : Picture based subtitle format used on BDs/HD-DVDs
  167. Duration : 2 h 40 min
  168. Bit rate : 27.7 kb/s
  169. Count of elements : 3530
  170. Stream size : 31.9 MiB (0%)
  171. Title : Bulgarian-PGS
  172. Language : Bulgarian
  173. Default : No
  174. Forced : No

  175. Text #9
  176. ID : 12
  177. Format : PGS
  178. Muxing mode : zlib
  179. Codec ID : S_HDMV/PGS
  180. Codec ID/Info : Picture based subtitle format used on BDs/HD-DVDs
  181. Duration : 2 h 40 min
  182. Bit rate : 22.1 kb/s
  183. Count of elements : 3538
  184. Stream size : 25.5 MiB (0%)
  185. Title : Chinese-PGS
  186. Language : Chinese
  187. Default : No
  188. Forced : No

  189. Text #10
  190. ID : 13
  191. Format : PGS
  192. Muxing mode : zlib
  193. Codec ID : S_HDMV/PGS
  194. Codec ID/Info : Picture based subtitle format used on BDs/HD-DVDs
  195. Duration : 2 h 40 min
  196. Bit rate : 24.8 kb/s
  197. Count of elements : 3538
  198. Stream size : 28.5 MiB (0%)
  199. Title : Chinese-PGS
  200. Language : Chinese
  201. Default : No
  202. Forced : No

  203. Text #11
  204. ID : 14
  205. Format : PGS
  206. Muxing mode : zlib
  207. Codec ID : S_HDMV/PGS
  208. Codec ID/Info : Picture based subtitle format used on BDs/HD-DVDs
  209. Duration : 2 h 40 min
  210. Bit rate : 26.0 kb/s
  211. Count of elements : 3520
  212. Stream size : 29.9 MiB (0%)
  213. Title : Chinese-PGS
  214. Language : Chinese
  215. Default : No
  216. Forced : No

  217. Text #12
  218. ID : 15
  219. Format : PGS
  220. Muxing mode : zlib
  221. Codec ID : S_HDMV/PGS
  222. Codec ID/Info : Picture based subtitle format used on BDs/HD-DVDs
  223. Duration : 2 h 40 min
  224. Bit rate : 26.6 kb/s
  225. Count of elements : 3504
  226. Stream size : 30.6 MiB (0%)
  227. Title : Croatian-PGS
  228. Language : Croatian
  229. Default : No
  230. Forced : No

  231. Text #13
  232. ID : 16
  233. Format : PGS
  234. Muxing mode : zlib
  235. Codec ID : S_HDMV/PGS
  236. Codec ID/Info : Picture based subtitle format used on BDs/HD-DVDs
  237. Duration : 2 h 40 min
  238. Bit rate : 27.7 kb/s
  239. Count of elements : 3488
  240. Stream size : 31.9 MiB (0%)
  241. Title : Czech-PGS
  242. Language : Czech
  243. Default : No
  244. Forced : No

  245. Text #14
  246. ID : 17
  247. Format : PGS
  248. Muxing mode : zlib
  249. Codec ID : S_HDMV/PGS
  250. Codec ID/Info : Picture based subtitle format used on BDs/HD-DVDs
  251. Duration : 2 h 40 min
  252. Bit rate : 26.9 kb/s
  253. Count of elements : 3792
  254. Stream size : 30.9 MiB (0%)
  255. Title : Estonian-PGS
  256. Language : Estonian
  257. Default : No
  258. Forced : No

  259. Text #15
  260. ID : 18
  261. Format : PGS
  262. Muxing mode : zlib
  263. Codec ID : S_HDMV/PGS
  264. Codec ID/Info : Picture based subtitle format used on BDs/HD-DVDs
  265. Duration : 2 h 40 min
  266. Bit rate : 27.3 kb/s
  267. Count of elements : 3317
  268. Stream size : 31.4 MiB (0%)
  269. Title : French-PGS
  270. Language : French
  271. Default : No
  272. Forced : No

  273. Text #16
  274. ID : 19
  275. Format : PGS
  276. Muxing mode : zlib
  277. Codec ID : S_HDMV/PGS
  278. Codec ID/Info : Picture based subtitle format used on BDs/HD-DVDs
  279. Duration : 2 h 39 min
  280. Bit rate : 31.1 kb/s
  281. Count of elements : 3470
  282. Stream size : 35.5 MiB (0%)
  283. Title : Greek-PGS
  284. Language : Greek
  285. Default : No
  286. Forced : No

  287. Text #17
  288. ID : 20
  289. Format : PGS
  290. Muxing mode : zlib
  291. Codec ID : S_HDMV/PGS
  292. Codec ID/Info : Picture based subtitle format used on BDs/HD-DVDs
  293. Duration : 2 h 40 min
  294. Bit rate : 22.5 kb/s
  295. Count of elements : 3498
  296. Stream size : 25.9 MiB (0%)
  297. Title : Hebrew-PGS
  298. Language : Hebrew
  299. Default : No
  300. Forced : No

  301. Text #18
  302. ID : 21
  303. Format : PGS
  304. Muxing mode : zlib
  305. Codec ID : S_HDMV/PGS
  306. Codec ID/Info : Picture based subtitle format used on BDs/HD-DVDs
  307. Duration : 2 h 40 min
  308. Bit rate : 28.2 kb/s
  309. Count of elements : 2908
  310. Stream size : 32.4 MiB (0%)
  311. Title : Hungarian-PGS
  312. Language : Hungarian
  313. Default : No
  314. Forced : No

  315. Text #19
  316. ID : 22
  317. Format : PGS
  318. Muxing mode : zlib
  319. Codec ID : S_HDMV/PGS
  320. Codec ID/Info : Picture based subtitle format used on BDs/HD-DVDs
  321. Duration : 2 h 40 min
  322. Bit rate : 28.8 kb/s
  323. Count of elements : 3268
  324. Stream size : 33.1 MiB (0%)
  325. Title : Icelandic-PGS
  326. Language : Icelandic
  327. Default : No
  328. Forced : No

  329. Text #20
  330. ID : 23
  331. Format : PGS
  332. Muxing mode : zlib
  333. Codec ID : S_HDMV/PGS
  334. Codec ID/Info : Picture based subtitle format used on BDs/HD-DVDs
  335. Duration : 2 h 40 min
  336. Bit rate : 29.9 kb/s
  337. Count of elements : 3394
  338. Stream size : 34.4 MiB (0%)
  339. Title : Indonesian-PGS
  340. Language : Indonesian
  341. Default : No
  342. Forced : No

  343. Text #21
  344. ID : 24
  345. Format : PGS
  346. Muxing mode : zlib
  347. Codec ID : S_HDMV/PGS
  348. Codec ID/Info : Picture based subtitle format used on BDs/HD-DVDs
  349. Duration : 2 h 40 min
  350. Bit rate : 22.4 kb/s
  351. Count of elements : 3539
  352. Stream size : 25.7 MiB (0%)
  353. Title : Korean-PGS
  354. Language : Korean
  355. Default : No
  356. Forced : No

  357. Text #22
  358. ID : 25
  359. Format : PGS
  360. Muxing mode : zlib
  361. Codec ID : S_HDMV/PGS
  362. Codec ID/Info : Picture based subtitle format used on BDs/HD-DVDs
  363. Duration : 2 h 40 min
  364. Bit rate : 27.7 kb/s
  365. Count of elements : 3728
  366. Stream size : 31.8 MiB (0%)
  367. Title : Latvian-PGS
  368. Language : Latvian
  369. Default : No
  370. Forced : No

  371. Text #23
  372. ID : 26
  373. Format : PGS
  374. Muxing mode : zlib
  375. Codec ID : S_HDMV/PGS
  376. Codec ID/Info : Picture based subtitle format used on BDs/HD-DVDs
  377. Duration : 2 h 40 min
  378. Bit rate : 27.2 kb/s
  379. Count of elements : 3468
  380. Stream size : 31.2 MiB (0%)
  381. Title : Lithuanian-PGS
  382. Language : Lithuanian
  383. Default : No
  384. Forced : No

  385. Text #24
  386. ID : 27
  387. Format : PGS
  388. Muxing mode : zlib
  389. Codec ID : S_HDMV/PGS
  390. Codec ID/Info : Picture based subtitle format used on BDs/HD-DVDs
  391. Duration : 2 h 40 min
  392. Bit rate : 26.9 kb/s
  393. Count of elements : 3474
  394. Stream size : 30.9 MiB (0%)
  395. Title : Polish-PGS
  396. Language : Polish
  397. Default : No
  398. Forced : No

  399. Text #25
  400. ID : 28
  401. Format : PGS
  402. Muxing mode : zlib
  403. Codec ID : S_HDMV/PGS
  404. Codec ID/Info : Picture based subtitle format used on BDs/HD-DVDs
  405. Duration : 2 h 40 min
  406. Bit rate : 29.5 kb/s
  407. Count of elements : 3414
  408. Stream size : 33.9 MiB (0%)
  409. Title : Portuguese-PGS
  410. Language : Portuguese
  411. Default : No
  412. Forced : No

  413. Text #26
  414. ID : 29
  415. Format : PGS
  416. Muxing mode : zlib
  417. Codec ID : S_HDMV/PGS
  418. Codec ID/Info : Picture based subtitle format used on BDs/HD-DVDs
  419. Duration : 2 h 40 min
  420. Bit rate : 30.4 kb/s
  421. Count of elements : 3510
  422. Stream size : 35.0 MiB (0%)
  423. Title : Portuguese-PGS
  424. Language : Portuguese
  425. Default : No
  426. Forced : No

  427. Text #27
  428. ID : 30
  429. Format : PGS
  430. Muxing mode : zlib
  431. Codec ID : S_HDMV/PGS
  432. Codec ID/Info : Picture based subtitle format used on BDs/HD-DVDs
  433. Duration : 2 h 40 min
  434. Bit rate : 29.1 kb/s
  435. Count of elements : 3334
  436. Stream size : 33.5 MiB (0%)
  437. Title : Romanian-PGS
  438. Language : Romanian
  439. Default : No
  440. Forced : No

  441. Text #28
  442. ID : 31
  443. Format : PGS
  444. Muxing mode : zlib
  445. Codec ID : S_HDMV/PGS
  446. Codec ID/Info : Picture based subtitle format used on BDs/HD-DVDs
  447. Duration : 2 h 40 min
  448. Bit rate : 27.8 kb/s
  449. Count of elements : 3532
  450. Stream size : 32.0 MiB (0%)
  451. Title : Russian-PGS
  452. Language : Russian
  453. Default : No
  454. Forced : No

  455. Text #29
  456. ID : 32
  457. Format : PGS
  458. Muxing mode : zlib
  459. Codec ID : S_HDMV/PGS
  460. Codec ID/Info : Picture based subtitle format used on BDs/HD-DVDs
  461. Duration : 2 h 40 min
  462. Bit rate : 27.9 kb/s
  463. Count of elements : 3532
  464. Stream size : 32.1 MiB (0%)
  465. Title : Serbian-PGS
  466. Language : Serbian
  467. Default : No
  468. Forced : No

  469. Text #30
  470. ID : 33
  471. Format : PGS
  472. Muxing mode : zlib
  473. Codec ID : S_HDMV/PGS
  474. Codec ID/Info : Picture based subtitle format used on BDs/HD-DVDs
  475. Duration : 2 h 40 min
  476. Bit rate : 25.2 kb/s
  477. Count of elements : 3518
  478. Stream size : 28.9 MiB (0%)
  479. Title : Slovak-PGS
  480. Language : Slovak
  481. Default : No
  482. Forced : No

  483. Text #31
  484. ID : 34
  485. Format : PGS
  486. Muxing mode : zlib
  487. Codec ID : S_HDMV/PGS
  488. Codec ID/Info : Picture based subtitle format used on BDs/HD-DVDs
  489. Duration : 2 h 40 min
  490. Bit rate : 25.5 kb/s
  491. Count of elements : 3036
  492. Stream size : 29.4 MiB (0%)
  493. Title : Slovenian-PGS
  494. Language : Slovenian
  495. Default : No
  496. Forced : No

  497. Text #32
  498. ID : 35
  499. Format : PGS
  500. Muxing mode : zlib
  501. Codec ID : S_HDMV/PGS
  502. Codec ID/Info : Picture based subtitle format used on BDs/HD-DVDs
  503. Duration : 2 h 40 min
  504. Bit rate : 29.6 kb/s
  505. Count of elements : 3462
  506. Stream size : 34.1 MiB (0%)
  507. Title : Spanish-PGS
  508. Language : Spanish
  509. Default : No
  510. Forced : No

  511. Text #33
  512. ID : 36
  513. Format : PGS
  514. Muxing mode : zlib
  515. Codec ID : S_HDMV/PGS
  516. Codec ID/Info : Picture based subtitle format used on BDs/HD-DVDs
  517. Duration : 2 h 40 min
  518. Bit rate : 25.3 kb/s
  519. Count of elements : 3526
  520. Stream size : 29.1 MiB (0%)
  521. Title : Thai-PGS
  522. Language : Thai
  523. Default : No
  524. Forced : No

  525. Menu
  526. 00:00:00.000 : en:Chapter 01
  527. 00:04:49.330 : en:Chapter 02
  528. 00:13:45.199 : en:Chapter 03
  529. 00:18:28.899 : en:Chapter 04
  530. 00:22:00.319 : en:Chapter 05
  531. 00:25:59.349 : en:Chapter 06
  532. 00:28:41.344 : en:Chapter 07
  533. 00:33:45.064 : en:Chapter 08
  534. 00:40:19.333 : en:Chapter 09
  535. 00:49:59.413 : en:Chapter 10
  536. 00:51:48.688 : en:Chapter 11
  537. 00:59:52.714 : en:Chapter 12
  538. 01:02:32.874 : en:Chapter 13
  539. 01:04:28.614 : en:Chapter 14
  540. 01:09:16.735 : en:Chapter 15
  541. 01:17:40.447 : en:Chapter 16
  542. 01:20:25.779 : en:Chapter 17
  543. 01:26:28.433 : en:Chapter 18
  544. 01:32:54.443 : en:Chapter 19
  545. 01:39:58.200 : en:Chapter 20
  546. 01:47:55.218 : en:Chapter 21
  547. 01:53:00.190 : en:Chapter 22
  548. 01:58:09.373 : en:Chapter 23
  549. 02:06:23.701 : en:Chapter 24
  550. 02:11:22.958 : en:Chapter 25
  551. 02:15:50.100 : en:Chapter 26
  552. 02:21:30.190 : en:Chapter 27
  553. 02:29:50.523 : en:Chapter 28
  554. 02:36:28.379 : en:Chapter 29
  555. 02:38:51.230 : en:Chapter 30
复制代码

好莱坞往事 Once.Upon.a.Time.in.Hollywood.2019.2160p.BluRay.x265.10bit.SDR.DTS-HD.MA.7.1-SWTYBLZ 47.91GB-2.png 好莱坞往事 Once.Upon.a.Time.in.Hollywood.2019.2160p.BluRay.x265.10bit.SDR.DTS-HD.MA.7.1-SWTYBLZ 47.91GB-3.png 好莱坞往事 Once.Upon.a.Time.in.Hollywood.2019.2160p.BluRay.x265.10bit.SDR.DTS-HD.MA.7.1-SWTYBLZ 47.91GB-4.png 好莱坞往事 Once.Upon.a.Time.in.Hollywood.2019.2160p.BluRay.x265.10bit.SDR.DTS-HD.MA.7.1-SWTYBLZ 47.91GB-5.png 好莱坞往事 Once.Upon.a.Time.in.Hollywood.2019.2160p.BluRay.x265.10bit.SDR.DTS-HD.MA.7.1-SWTYBLZ 47.91GB-1.png 好莱坞往事 Once.Upon.a.Time.in.Hollywood.2019.2160p.BluRay.x265.10bit.SDR.DTS-HD.MA.7.1-SWTYBLZ 47.91GB-7.png 好莱坞往事 Once.Upon.a.Time.in.Hollywood.2019.2160p.BluRay.x265.10bit.SDR.DTS-HD.MA.7.1-SWTYBLZ 47.91GB-8.png





本帖隐藏的下载地址需要VIP会员才可阅读,您需要升级才可阅读,点击这里升级VIP
VIP会员免费任意下载本站所有资源!---点击开通
回复

使用道具 举报

级别:初级观众 Lv.1

注册时间
2019-12-2
最后登录
2019-12-2
听众
1
收听
0
主题
0
蓝光币
1 枚
贡献
0 点
发表于 2019-12-2 22:22:32 | 显示全部楼层

感谢楼主的无私分享!要想中国高清电影网好 就靠你我他
VIP会员免费任意下载本站所有资源!---点击开通
回复

使用道具 举报

懒得打字嘛,点击右侧快捷回复 【右侧内容,后台自定义】
您需要登录后才可以回帖 登录 | 立即注册

本版积分规则

QQ|Archiver|手机版|小黑屋| 中国高清网 |网站地图

GMT+8, 2019-12-14 07:47 , Processed in 0.298680 second(s), 37 queries .

Powered by HDchina X3.4

Copyright 2017-2019©HDchina.All right reserved

返回顶部 联系我们