查看: 113|回复: 4

[REMUX.HEVC] 好莱坞往事 Once.Upon.a.Time.in.Hollywood.2019.2160p.BluRay.REMUX.HEVC.DTS-HD.MA.7.1-FGT 75.23GB

[复制链接]

 成长值: 3410

级别:资源管理组

注册时间
2017-10-20
最后登录
2019-12-10
听众
1
收听
0
主题
88361
蓝光币
69810 枚
贡献
12723 点
发表于 2019-11-30 21:59:40 | 显示全部楼层 |阅读模式
好莱坞往事 Once.Upon.a.Time.in.Hollywood.2019.2160p.BluRay.REMUX.HEVC.DTS-HD.MA.7.1-FGT 75.23GB-1.png

◎译  名 好莱坞往事 / Once Upon a Time in Hollywood / Once Upon a Time in… Hollywood / 畴前,有个好莱坞...(台) / 畴前,有个荷里活(港) / 好莱坞杀人事务 / 荷里活往事
◎片  名 Once Upon a Time... in Hollywood
◎年  代 2019
◎产  地 英国 / 美国 / 中国大陆
◎类  别 剧情 / 笑剧
◎语  言 英语
◎上映日期 2019(中国大陆) / 2019-05-21(戛纳电影节) / 2019-07-26(美国)
◎IMDb评分 8.0/10 from 228656 users
◎IMDb链接 https://www.imdb.com/title/tt7131622
◎豆瓣评分 7.5/10 from 16309 users
◎豆瓣链接 https://movie.douban.com/subject/27087724/
◎片  长 165分钟
◎导  演 昆汀·塔伦蒂诺 Quentin Tarantino
◎编  剧 昆汀·塔伦蒂诺 Quentin Tarantino
◎主  演 莱昂纳多·迪卡普里奥 Leonardo DiCaprio
      布拉德·皮特 Brad Pitt
      玛格特·罗比 Margot Robbie
      埃米尔·赫斯基 Emile Hirsch
      玛格丽特·库里 Margaret Qualley
      蒂莫西·奥利芬特 Timothy Olyphant
      茱莉亚·巴特斯 Julia Butters
      奥斯汀·巴特勒 Austin Butler
      达科塔·范宁 Dakota Fanning
      布鲁斯·邓恩 Bruce Dern
      麦克·莫 Mike Moh
      卢克·贝里 Luke Perry
      戴米恩·路易斯 Damian Lewis
      库尔特·拉塞尔 Kurt Russell
      阿尔·帕西诺 Al Pacino
      玛雅·霍克 Maya Hawke
      西德妮·斯维尼 Sydney Sweeney
      哈莉·奎恩·史姑娘 Harley Quinn Smith
      达蒙·海瑞曼 Damon Herriman
      凯特·贝兰特 Kate Berlant
      洛伦扎·伊佐 Lorenza Izzo
      迈克尔·马德森 Michael Madsen
      拉莫·威利斯 Rumer Willis
      斯科特·麦克纳里 Scoot McNairy
      小克利夫顿·克林斯 Clifton Collins Jr.
      维多利亚·佩德雷蒂 Victoria Pedretti
      吕蓓卡·盖哈特 Rebecca Gayheart
      佐伊·贝尔 Zoe Bell
      莱斯利·贝加 Leslie Bega
      瑞贝卡·瑞滕豪斯 Rebecca Rittenhouse
      萨曼莎·罗宾森 Samantha Robinson
      莉娜·邓纳姆 Lena Dunham
      德瑞玛·沃克 Dreama Walker
      克鲁·古拉格 Clu Gulager
      丹妮拉·皮克 Daniela Pick
      布伦达·瓦卡罗 Brenda Vaccaro
      尼古拉斯·哈蒙德 Nicholas Hammond
      米奇·麦迪森 Mikey Madison
      詹姆斯·兰德里·赫伯特 James Landry Hébert
      妮可·加利西亚 Nichole Galicia
      麦迪逊·贝蒂 Madisen Beaty
      佩内洛普·卡普迪雅 Penelope Kapudija
      莫里斯·孔特 Maurice Compte
      科斯塔·罗宁 Costa Ronin
      卢·坦普尔 Lew Temple
      斯宾塞·加雷特 Spencer Garrett
      Brianna Joy Chomer
      奥玛·杜姆 Omar Doom
      娜塔莉·科恩 Natalie Cohen
      拉法尔·扎维鲁查 Rafal Zawierucha
      马尔科·罗德里格斯 Marco Rodríguez
      Kansas Skye
      维森特·拉雷斯卡 Vincent Laresca
      殷巴尔·阿米拉夫 Inbal Amirav
      拉蒙·弗兰克 Ramón Franco
      莫妮卡·斯塔吉丝 Monica Staggs
      克雷格·斯塔克 Craig Stark
      大卫·斯廷 David Steen
      朱丽叶·吉达 Juliette Kida
      埃迪·佩雷斯 Eddie Perez
      布蕾迪·拉多娜 Bridie Latona
      凯拉·拉多姆斯基 Kayla Radomski
      布里安娜·温 Breanna Wing
      Carolina Vargas
      Gary Private


◎标  签 美国 | 犯罪 | 剧情 | 2019 | 黑色诙谐 | 惊悚 | 列传 | 实在事务改编

◎简  介

  故事在1969年瞬息万变的洛杉矶展开,在阿谁如火如荼的变化时代,嬉皮文化流行,好莱坞大制片厂制度崩溃,新的好莱坞明星纷纷突起。电视明星里克·道尔顿(莱昂纳多·迪卡普里奥 Leonardo DiCaprio饰)与他持久合作替人同伴克里夫·布斯(布拉德·皮特 Brad Pitt 饰)若何在逐步陌生的文娱圈里,找到自己的一席之地。他们正力图扬名电影圈,却发现这个行业早已不是他们设想的样子了…… 这是昆汀自编自导第9部影片,聚集星光闪闪的卡司与交织的情节,纪念好莱坞不再复返的黄金年月。

◎获奖情况

  第72届戛纳电影节(2019)
  主比赛单元 金棕榈奖(提名) 昆汀·塔伦蒂诺

  第72届洛迦诺国际电影节(2019)
  Variety Piazza Grande Award(提名) 昆汀·塔伦蒂诺

  第7届美国化装及发型设想工会奖(2020)
  电影类最好年月戏化装(提名)
  电影类最好年月戏发型设想(提名)

  第5届豆瓣电影年度榜单(2018)
  最值得期待的外语电影(提名)
  1. Video
  2. ID : 1
  3. Format : HEVC
  4. Format/Info : High Efficiency Video Coding
  5. Format profile : Main [email]10@L5.1[/email]@High
  6. HDR format : SMPTE ST 2086, HDR10 compatible
  7. Codec ID : V_MPEGH/ISO/HEVC
  8. Duration : 2 h 41 min
  9. Bit rate : 56.0 Mb/s
  10. Width : 3 840 pixels
  11. Height : 2 160 pixels
  12. Display aspect ratio : 16:9
  13. Frame rate mode : Constant
  14. Frame rate : 23.976 (24000/1001) FPS
  15. Color space : YUV
  16. Chroma subsampling : 4:2:0 (Type 2)
  17. Bit depth : 10 bits
  18. Bits/(Pixel*Frame) : 0.281
  19. Stream size : 63.1 GiB (84%)
  20. Title : Once.Upon.a.Time.in.Hollywood.2019.2160p.BluRay.REMUX.HEVC.DTS-HD.MA.7.1-FGT
  21. Language : English
  22. Default : No
  23. Forced : No
  24. Color range : Limited
  25. Color primaries : BT.2020
  26. Transfer characteristics : PQ
  27. Matrix coefficients : BT.2020 non-constant
  28. Mastering display color primaries : Display P3
  29. Mastering display luminance : min: 0.0001 cd/m2, max: 1000 cd/m2
  30. Maximum Content Light Level : 385 cd/m2
  31. Maximum Frame-Average Light Level : 213 cd/m2

  32. Audio #1
  33. ID : 2
  34. Format : DTS XLL
  35. Format/Info : Digital Theater Systems
  36. Commercial name : DTS-HD Master Audio
  37. Codec ID : A_DTS
  38. Duration : 2 h 41 min
  39. Bit rate mode : Variable
  40. Bit rate : 2 560 kb/s
  41. Channel(s) : 8 channels
  42. Channel layout : C L R LFE Lb Rb Lss Rss
  43. Sampling rate : 48.0 kHz
  44. Frame rate : 93.750 FPS (512 SPF)
  45. Bit depth : 16 bits
  46. Compression mode : Lossless
  47. Stream size : 2.89 GiB (4%)
  48. Title : Once.Upon.a.Time.in.Hollywood.2019.2160p.BluRay.REMUX.HEVC.DTS-HD.MA.7.1-FGT
  49. Language : English
  50. Default : Yes
  51. Forced : No

  52. Audio #2
  53. ID : 3
  54. Format : AC-3
  55. Format/Info : Audio Coding 3
  56. Commercial name : Dolby Digital
  57. Codec ID : A_AC3
  58. Duration : 2 h 41 min
  59. Bit rate mode : Constant
  60. Bit rate : 640 kb/s
  61. Channel(s) : 6 channels
  62. Channel layout : L R C LFE Ls Rs
  63. Sampling rate : 48.0 kHz
  64. Frame rate : 31.250 FPS (1536 SPF)
  65. Bit depth : 16 bits
  66. Compression mode : Lossy
  67. Stream size : 739 MiB (1%)
  68. Title : Once.Upon.a.Time.in.Hollywood.2019.2160p.BluRay.REMUX.HEVC.DTS-HD.MA.7.1-FGT
  69. Language : English
  70. Service kind : Complete Main
  71. Default : No
  72. Forced : No

  73. Audio #3
  74. ID : 4
  75. Format : AC-3
  76. Format/Info : Audio Coding 3
  77. Commercial name : Dolby Digital
  78. Codec ID : A_AC3
  79. Duration : 2 h 41 min
  80. Bit rate mode : Constant
  81. Bit rate : 640 kb/s
  82. Channel(s) : 6 channels
  83. Channel layout : L R C LFE Ls Rs
  84. Sampling rate : 48.0 kHz
  85. Frame rate : 31.250 FPS (1536 SPF)
  86. Bit depth : 16 bits
  87. Compression mode : Lossy
  88. Stream size : 739 MiB (1%)
  89. Title : Once.Upon.a.Time.in.Hollywood.2019.2160p.BluRay.REMUX.HEVC.DTS-HD.MA.7.1-FGT
  90. Language : English
  91. Service kind : Complete Main
  92. Default : No
  93. Forced : No

  94. Audio #4
  95. ID : 5
  96. Format : AC-3
  97. Format/Info : Audio Coding 3
  98. Commercial name : Dolby Digital
  99. Codec ID : A_AC3
  100. Duration : 2 h 41 min
  101. Bit rate mode : Constant
  102. Bit rate : 640 kb/s
  103. Channel(s) : 6 channels
  104. Channel layout : L R C LFE Ls Rs
  105. Sampling rate : 48.0 kHz
  106. Frame rate : 31.250 FPS (1536 SPF)
  107. Bit depth : 16 bits
  108. Compression mode : Lossy
  109. Stream size : 739 MiB (1%)
  110. Title : Once.Upon.a.Time.in.Hollywood.2019.2160p.BluRay.REMUX.HEVC.DTS-HD.MA.7.1-FGT
  111. Language : Czech
  112. Service kind : Complete Main
  113. Default : No
  114. Forced : No

  115. Audio #5
  116. ID : 6
  117. Format : AC-3
  118. Format/Info : Audio Coding 3
  119. Commercial name : Dolby Digital
  120. Codec ID : A_AC3
  121. Duration : 2 h 41 min
  122. Bit rate mode : Constant
  123. Bit rate : 640 kb/s
  124. Channel(s) : 6 channels
  125. Channel layout : L R C LFE Ls Rs
  126. Sampling rate : 48.0 kHz
  127. Frame rate : 31.250 FPS (1536 SPF)
  128. Bit depth : 16 bits
  129. Compression mode : Lossy
  130. Stream size : 739 MiB (1%)
  131. Title : Once.Upon.a.Time.in.Hollywood.2019.2160p.BluRay.REMUX.HEVC.DTS-HD.MA.7.1-FGT
  132. Language : French
  133. Service kind : Complete Main
  134. Default : No
  135. Forced : No

  136. Audio #6
  137. ID : 7
  138. Format : AC-3
  139. Format/Info : Audio Coding 3
  140. Commercial name : Dolby Digital
  141. Codec ID : A_AC3
  142. Duration : 2 h 41 min
  143. Bit rate mode : Constant
  144. Bit rate : 640 kb/s
  145. Channel(s) : 6 channels
  146. Channel layout : L R C LFE Ls Rs
  147. Sampling rate : 48.0 kHz
  148. Frame rate : 31.250 FPS (1536 SPF)
  149. Bit depth : 16 bits
  150. Compression mode : Lossy
  151. Stream size : 739 MiB (1%)
  152. Title : Once.Upon.a.Time.in.Hollywood.2019.2160p.BluRay.REMUX.HEVC.DTS-HD.MA.7.1-FGT
  153. Language : French
  154. Service kind : Complete Main
  155. Default : No
  156. Forced : No

  157. Audio #7
  158. ID : 8
  159. Format : AC-3
  160. Format/Info : Audio Coding 3
  161. Commercial name : Dolby Digital
  162. Codec ID : A_AC3
  163. Duration : 2 h 41 min
  164. Bit rate mode : Constant
  165. Bit rate : 640 kb/s
  166. Channel(s) : 6 channels
  167. Channel layout : L R C LFE Ls Rs
  168. Sampling rate : 48.0 kHz
  169. Frame rate : 31.250 FPS (1536 SPF)
  170. Bit depth : 16 bits
  171. Compression mode : Lossy
  172. Stream size : 739 MiB (1%)
  173. Title : Once.Upon.a.Time.in.Hollywood.2019.2160p.BluRay.REMUX.HEVC.DTS-HD.MA.7.1-FGT
  174. Language : Hungarian
  175. Service kind : Complete Main
  176. Default : No
  177. Forced : No

  178. Audio #8
  179. ID : 9
  180. Format : AC-3
  181. Format/Info : Audio Coding 3
  182. Commercial name : Dolby Digital
  183. Codec ID : A_AC3
  184. Duration : 2 h 41 min
  185. Bit rate mode : Constant
  186. Bit rate : 640 kb/s
  187. Channel(s) : 6 channels
  188. Channel layout : L R C LFE Ls Rs
  189. Sampling rate : 48.0 kHz
  190. Frame rate : 31.250 FPS (1536 SPF)
  191. Bit depth : 16 bits
  192. Compression mode : Lossy
  193. Stream size : 739 MiB (1%)
  194. Title : Once.Upon.a.Time.in.Hollywood.2019.2160p.BluRay.REMUX.HEVC.DTS-HD.MA.7.1-FGT
  195. Language : Korean
  196. Service kind : Complete Main
  197. Default : No
  198. Forced : No

  199. Audio #9
  200. ID : 10
  201. Format : AC-3
  202. Format/Info : Audio Coding 3
  203. Commercial name : Dolby Digital
  204. Codec ID : A_AC3
  205. Duration : 2 h 41 min
  206. Bit rate mode : Constant
  207. Bit rate : 640 kb/s
  208. Channel(s) : 6 channels
  209. Channel layout : L R C LFE Ls Rs
  210. Sampling rate : 48.0 kHz
  211. Frame rate : 31.250 FPS (1536 SPF)
  212. Bit depth : 16 bits
  213. Compression mode : Lossy
  214. Stream size : 739 MiB (1%)
  215. Title : Once.Upon.a.Time.in.Hollywood.2019.2160p.BluRay.REMUX.HEVC.DTS-HD.MA.7.1-FGT
  216. Language : Polish
  217. Service kind : Complete Main
  218. Default : No
  219. Forced : No

  220. Audio #10
  221. ID : 11
  222. Format : AC-3
  223. Format/Info : Audio Coding 3
  224. Commercial name : Dolby Digital
  225. Codec ID : A_AC3
  226. Duration : 2 h 41 min
  227. Bit rate mode : Constant
  228. Bit rate : 640 kb/s
  229. Channel(s) : 6 channels
  230. Channel layout : L R C LFE Ls Rs
  231. Sampling rate : 48.0 kHz
  232. Frame rate : 31.250 FPS (1536 SPF)
  233. Bit depth : 16 bits
  234. Compression mode : Lossy
  235. Stream size : 739 MiB (1%)
  236. Title : Once.Upon.a.Time.in.Hollywood.2019.2160p.BluRay.REMUX.HEVC.DTS-HD.MA.7.1-FGT
  237. Language : Portuguese
  238. Service kind : Complete Main
  239. Default : No
  240. Forced : No

  241. Audio #11
  242. ID : 12
  243. Format : AC-3
  244. Format/Info : Audio Coding 3
  245. Commercial name : Dolby Digital
  246. Codec ID : A_AC3
  247. Duration : 2 h 41 min
  248. Bit rate mode : Constant
  249. Bit rate : 640 kb/s
  250. Channel(s) : 6 channels
  251. Channel layout : L R C LFE Ls Rs
  252. Sampling rate : 48.0 kHz
  253. Frame rate : 31.250 FPS (1536 SPF)
  254. Bit depth : 16 bits
  255. Compression mode : Lossy
  256. Stream size : 739 MiB (1%)
  257. Title : Once.Upon.a.Time.in.Hollywood.2019.2160p.BluRay.REMUX.HEVC.DTS-HD.MA.7.1-FGT
  258. Language : Russian
  259. Service kind : Complete Main
  260. Default : No
  261. Forced : No

  262. Audio #12
  263. ID : 13
  264. Format : AC-3
  265. Format/Info : Audio Coding 3
  266. Commercial name : Dolby Digital
  267. Codec ID : A_AC3
  268. Duration : 2 h 41 min
  269. Bit rate mode : Constant
  270. Bit rate : 640 kb/s
  271. Channel(s) : 6 channels
  272. Channel layout : L R C LFE Ls Rs
  273. Sampling rate : 48.0 kHz
  274. Frame rate : 31.250 FPS (1536 SPF)
  275. Bit depth : 16 bits
  276. Compression mode : Lossy
  277. Stream size : 739 MiB (1%)
  278. Title : Once.Upon.a.Time.in.Hollywood.2019.2160p.BluRay.REMUX.HEVC.DTS-HD.MA.7.1-FGT
  279. Language : Spanish
  280. Service kind : Complete Main
  281. Default : No
  282. Forced : No

  283. Audio #13
  284. ID : 14
  285. Format : AC-3
  286. Format/Info : Audio Coding 3
  287. Commercial name : Dolby Digital
  288. Codec ID : A_AC3
  289. Duration : 2 h 41 min
  290. Bit rate mode : Constant
  291. Bit rate : 640 kb/s
  292. Channel(s) : 6 channels
  293. Channel layout : L R C LFE Ls Rs
  294. Sampling rate : 48.0 kHz
  295. Frame rate : 31.250 FPS (1536 SPF)
  296. Bit depth : 16 bits
  297. Compression mode : Lossy
  298. Stream size : 739 MiB (1%)
  299. Title : Once.Upon.a.Time.in.Hollywood.2019.2160p.BluRay.REMUX.HEVC.DTS-HD.MA.7.1-FGT
  300. Language : Thai
  301. Service kind : Complete Main
  302. Default : No
  303. Forced : No

  304. Text #1
  305. ID : 15
  306. Format : UTF-8
  307. Codec ID : S_TEXT/UTF8
  308. Codec ID/Info : UTF-8 Plain Text
  309. Duration : 2 h 39 min
  310. Bit rate : 56 b/s
  311. Count of elements : 2130
  312. Stream size : 65.8 KiB (0%)
  313. Title : English-SRT
  314. Language : English
  315. Default : Yes
  316. Forced : No

  317. Text #2
  318. ID : 16
  319. Format : UTF-8
  320. Codec ID : S_TEXT/UTF8
  321. Codec ID/Info : UTF-8 Plain Text
  322. Duration : 2 h 40 min
  323. Bit rate : 64 b/s
  324. Count of elements : 2542
  325. Stream size : 76.3 KiB (0%)
  326. Title : English-SDH-SRT
  327. Language : English
  328. Default : No
  329. Forced : No

  330. Text #3
  331. ID : 17
  332. Format : PGS
  333. Muxing mode : zlib
  334. Codec ID : S_HDMV/PGS
  335. Codec ID/Info : Picture based subtitle format used on BDs/HD-DVDs
  336. Duration : 2 h 40 min
  337. Bit rate : 37.2 kb/s
  338. Count of elements : 4116
  339. Stream size : 42.8 MiB (0%)
  340. Title : English-SDH-PGS
  341. Language : English
  342. Default : No
  343. Forced : No

  344. Text #4
  345. ID : 18
  346. Format : PGS
  347. Muxing mode : zlib
  348. Codec ID : S_HDMV/PGS
  349. Codec ID/Info : Picture based subtitle format used on BDs/HD-DVDs
  350. Duration : 2 h 39 min
  351. Bit rate : 33.7 kb/s
  352. Count of elements : 3588
  353. Stream size : 38.4 MiB (0%)
  354. Title : English-PGS
  355. Language : English
  356. Default : No
  357. Forced : No

  358. Text #5
  359. ID : 19
  360. Format : PGS
  361. Muxing mode : zlib
  362. Codec ID : S_HDMV/PGS
  363. Codec ID/Info : Picture based subtitle format used on BDs/HD-DVDs
  364. Duration : 2 h 40 min
  365. Bit rate : 37.2 kb/s
  366. Count of elements : 4116
  367. Stream size : 42.8 MiB (0%)
  368. Title : English-SDH-PGS
  369. Language : English
  370. Default : No
  371. Forced : No

  372. Text #6
  373. ID : 20
  374. Format : PGS
  375. Muxing mode : zlib
  376. Codec ID : S_HDMV/PGS
  377. Codec ID/Info : Picture based subtitle format used on BDs/HD-DVDs
  378. Duration : 2 h 39 min
  379. Bit rate : 33.7 kb/s
  380. Count of elements : 3588
  381. Stream size : 38.4 MiB (0%)
  382. Title : English-PGS
  383. Language : English
  384. Default : No
  385. Forced : No

  386. Text #7
  387. ID : 21
  388. Format : PGS
  389. Muxing mode : zlib
  390. Codec ID : S_HDMV/PGS
  391. Codec ID/Info : Picture based subtitle format used on BDs/HD-DVDs
  392. Duration : 2 h 40 min
  393. Bit rate : 16.4 kb/s
  394. Count of elements : 3499
  395. Stream size : 18.9 MiB (0%)
  396. Title : Arabic-PGS
  397. Language : Arabic
  398. Default : No
  399. Forced : No

  400. Text #8
  401. ID : 22
  402. Format : PGS
  403. Muxing mode : zlib
  404. Codec ID : S_HDMV/PGS
  405. Codec ID/Info : Picture based subtitle format used on BDs/HD-DVDs
  406. Duration : 2 h 40 min
  407. Bit rate : 27.7 kb/s
  408. Count of elements : 3530
  409. Stream size : 31.9 MiB (0%)
  410. Title : Bulgarian-PGS
  411. Language : Bulgarian
  412. Default : No
  413. Forced : No

  414. Text #9
  415. ID : 23
  416. Format : PGS
  417. Muxing mode : zlib
  418. Codec ID : S_HDMV/PGS
  419. Codec ID/Info : Picture based subtitle format used on BDs/HD-DVDs
  420. Duration : 2 h 40 min
  421. Bit rate : 22.1 kb/s
  422. Count of elements : 3538
  423. Stream size : 25.5 MiB (0%)
  424. Title : Chinese-PGS
  425. Language : Chinese
  426. Default : No
  427. Forced : No

  428. Text #10
  429. ID : 24
  430. Format : PGS
  431. Muxing mode : zlib
  432. Codec ID : S_HDMV/PGS
  433. Codec ID/Info : Picture based subtitle format used on BDs/HD-DVDs
  434. Duration : 2 h 40 min
  435. Bit rate : 24.8 kb/s
  436. Count of elements : 3538
  437. Stream size : 28.5 MiB (0%)
  438. Title : Chinese-PGS
  439. Language : Chinese
  440. Default : No
  441. Forced : No

  442. Text #11
  443. ID : 25
  444. Format : PGS
  445. Muxing mode : zlib
  446. Codec ID : S_HDMV/PGS
  447. Codec ID/Info : Picture based subtitle format used on BDs/HD-DVDs
  448. Duration : 2 h 40 min
  449. Bit rate : 26.0 kb/s
  450. Count of elements : 3520
  451. Stream size : 29.9 MiB (0%)
  452. Title : Chinese-PGS
  453. Language : Chinese
  454. Default : No
  455. Forced : No

  456. Text #12
  457. ID : 26
  458. Format : PGS
  459. Muxing mode : zlib
  460. Codec ID : S_HDMV/PGS
  461. Codec ID/Info : Picture based subtitle format used on BDs/HD-DVDs
  462. Duration : 2 h 40 min
  463. Bit rate : 26.6 kb/s
  464. Count of elements : 3504
  465. Stream size : 30.6 MiB (0%)
  466. Title : Croatian-PGS
  467. Language : Croatian
  468. Default : No
  469. Forced : No

  470. Text #13
  471. ID : 27
  472. Format : PGS
  473. Muxing mode : zlib
  474. Codec ID : S_HDMV/PGS
  475. Codec ID/Info : Picture based subtitle format used on BDs/HD-DVDs
  476. Duration : 2 h 40 min
  477. Bit rate : 27.7 kb/s
  478. Count of elements : 3488
  479. Stream size : 31.9 MiB (0%)
  480. Title : Czech-PGS
  481. Language : Czech
  482. Default : No
  483. Forced : No

  484. Text #14
  485. ID : 28
  486. Format : PGS
  487. Muxing mode : zlib
  488. Codec ID : S_HDMV/PGS
  489. Codec ID/Info : Picture based subtitle format used on BDs/HD-DVDs
  490. Duration : 2 h 36 min
  491. Bit rate : 353 b/s
  492. Count of elements : 42
  493. Stream size : 405 KiB (0%)
  494. Title : Czech-FORCED-PGS
  495. Language : Czech
  496. Default : No
  497. Forced : No

  498. Text #15
  499. ID : 29
  500. Format : PGS
  501. Muxing mode : zlib
  502. Codec ID : S_HDMV/PGS
  503. Codec ID/Info : Picture based subtitle format used on BDs/HD-DVDs
  504. Duration : 2 h 40 min
  505. Bit rate : 26.9 kb/s
  506. Count of elements : 3792
  507. Stream size : 30.9 MiB (0%)
  508. Title : Estonian-PGS
  509. Language : Estonian
  510. Default : No
  511. Forced : No

  512. Text #16
  513. ID : 30
  514. Format : PGS
  515. Muxing mode : zlib
  516. Codec ID : S_HDMV/PGS
  517. Codec ID/Info : Picture based subtitle format used on BDs/HD-DVDs
  518. Duration : 2 h 40 min
  519. Bit rate : 27.3 kb/s
  520. Count of elements : 3317
  521. Stream size : 31.4 MiB (0%)
  522. Title : French-PGS
  523. Language : French
  524. Default : No
  525. Forced : No

  526. Text #17
  527. ID : 31
  528. Format : PGS
  529. Muxing mode : zlib
  530. Codec ID : S_HDMV/PGS
  531. Codec ID/Info : Picture based subtitle format used on BDs/HD-DVDs
  532. Duration : 2 h 39 min
  533. Bit rate : 31.1 kb/s
  534. Count of elements : 3470
  535. Stream size : 35.5 MiB (0%)
  536. Title : Greek-PGS
  537. Language : Greek
  538. Default : No
  539. Forced : No

  540. Text #18
  541. ID : 32
  542. Format : PGS
  543. Muxing mode : zlib
  544. Codec ID : S_HDMV/PGS
  545. Codec ID/Info : Picture based subtitle format used on BDs/HD-DVDs
  546. Duration : 2 h 40 min
  547. Bit rate : 22.5 kb/s
  548. Count of elements : 3498
  549. Stream size : 25.9 MiB (0%)
  550. Title : Hebrew-PGS
  551. Language : Hebrew
  552. Default : No
  553. Forced : No

  554. Text #19
  555. ID : 33
  556. Format : PGS
  557. Muxing mode : zlib
  558. Codec ID : S_HDMV/PGS
  559. Codec ID/Info : Picture based subtitle format used on BDs/HD-DVDs
  560. Duration : 2 h 40 min
  561. Bit rate : 28.2 kb/s
  562. Count of elements : 2908
  563. Stream size : 32.4 MiB (0%)
  564. Title : Hungarian-PGS
  565. Language : Hungarian
  566. Default : No
  567. Forced : No

  568. Text #20
  569. ID : 34
  570. Format : PGS
  571. Muxing mode : zlib
  572. Codec ID : S_HDMV/PGS
  573. Codec ID/Info : Picture based subtitle format used on BDs/HD-DVDs
  574. Duration : 2 h 40 min
  575. Bit rate : 28.8 kb/s
  576. Count of elements : 3268
  577. Stream size : 33.1 MiB (0%)
  578. Title : Icelandic-PGS
  579. Language : Icelandic
  580. Default : No
  581. Forced : No

  582. Text #21
  583. ID : 35
  584. Format : PGS
  585. Muxing mode : zlib
  586. Codec ID : S_HDMV/PGS
  587. Codec ID/Info : Picture based subtitle format used on BDs/HD-DVDs
  588. Duration : 2 h 40 min
  589. Bit rate : 29.9 kb/s
  590. Count of elements : 3394
  591. Stream size : 34.4 MiB (0%)
  592. Title : Indonesian-PGS
  593. Language : Indonesian
  594. Default : No
  595. Forced : No

  596. Text #22
  597. ID : 36
  598. Format : PGS
  599. Muxing mode : zlib
  600. Codec ID : S_HDMV/PGS
  601. Codec ID/Info : Picture based subtitle format used on BDs/HD-DVDs
  602. Duration : 2 h 40 min
  603. Bit rate : 22.4 kb/s
  604. Count of elements : 3539
  605. Stream size : 25.7 MiB (0%)
  606. Title : Korean-PGS
  607. Language : Korean
  608. Default : No
  609. Forced : No

  610. Text #23
  611. ID : 37
  612. Format : PGS
  613. Muxing mode : zlib
  614. Codec ID : S_HDMV/PGS
  615. Codec ID/Info : Picture based subtitle format used on BDs/HD-DVDs
  616. Duration : 2 h 14 min
  617. Bit rate : 323 b/s
  618. Count of elements : 46
  619. Stream size : 319 KiB (0%)
  620. Title : Korean-FORCED-PGS
  621. Language : Korean
  622. Default : No
  623. Forced : No

  624. Text #24
  625. ID : 38
  626. Format : PGS
  627. Muxing mode : zlib
  628. Codec ID : S_HDMV/PGS
  629. Codec ID/Info : Picture based subtitle format used on BDs/HD-DVDs
  630. Duration : 2 h 40 min
  631. Bit rate : 27.7 kb/s
  632. Count of elements : 3728
  633. Stream size : 31.8 MiB (0%)
  634. Title : Latvian-PGS
  635. Language : Latvian
  636. Default : No
  637. Forced : No

  638. Text #25
  639. ID : 39
  640. Format : PGS
  641. Muxing mode : zlib
  642. Codec ID : S_HDMV/PGS
  643. Codec ID/Info : Picture based subtitle format used on BDs/HD-DVDs
  644. Duration : 2 h 40 min
  645. Bit rate : 27.2 kb/s
  646. Count of elements : 3468
  647. Stream size : 31.2 MiB (0%)
  648. Title : Lithuanian-PGS
  649. Language : Lithuanian
  650. Default : No
  651. Forced : No

  652. Text #26
  653. ID : 40
  654. Format : PGS
  655. Muxing mode : zlib
  656. Codec ID : S_HDMV/PGS
  657. Codec ID/Info : Picture based subtitle format used on BDs/HD-DVDs
  658. Duration : 2 h 40 min
  659. Bit rate : 26.9 kb/s
  660. Count of elements : 3474
  661. Stream size : 30.9 MiB (0%)
  662. Title : Polish-PGS
  663. Language : Polish
  664. Default : No
  665. Forced : No

  666. Text #27
  667. ID : 41
  668. Format : PGS
  669. Muxing mode : zlib
  670. Codec ID : S_HDMV/PGS
  671. Codec ID/Info : Picture based subtitle format used on BDs/HD-DVDs
  672. Duration : 2 h 30 min
  673. Bit rate : 84 b/s
  674. Count of elements : 8
  675. Stream size : 93.5 KiB (0%)
  676. Title : Polish-FORCED-PGS
  677. Language : Polish
  678. Default : No
  679. Forced : No

  680. Text #28
  681. ID : 42
  682. Format : PGS
  683. Muxing mode : zlib
  684. Codec ID : S_HDMV/PGS
  685. Codec ID/Info : Picture based subtitle format used on BDs/HD-DVDs
  686. Duration : 2 h 40 min
  687. Bit rate : 29.5 kb/s
  688. Count of elements : 3414
  689. Stream size : 33.9 MiB (0%)
  690. Title : Portuguese-PGS
  691. Language : Portuguese
  692. Default : No
  693. Forced : No

  694. Text #29
  695. ID : 43
  696. Format : PGS
  697. Muxing mode : zlib
  698. Codec ID : S_HDMV/PGS
  699. Codec ID/Info : Picture based subtitle format used on BDs/HD-DVDs
  700. Duration : 2 h 40 min
  701. Bit rate : 324 b/s
  702. Count of elements : 48
  703. Stream size : 383 KiB (0%)
  704. Title : Portuguese-FORCED-PGS
  705. Language : Portuguese
  706. Default : No
  707. Forced : No

  708. Text #30
  709. ID : 44
  710. Format : PGS
  711. Muxing mode : zlib
  712. Codec ID : S_HDMV/PGS
  713. Codec ID/Info : Picture based subtitle format used on BDs/HD-DVDs
  714. Duration : 2 h 40 min
  715. Bit rate : 30.4 kb/s
  716. Count of elements : 3510
  717. Stream size : 35.0 MiB (0%)
  718. Title : Portuguese-PGS
  719. Language : Portuguese
  720. Default : No
  721. Forced : No

  722. Text #31
  723. ID : 45
  724. Format : PGS
  725. Muxing mode : zlib
  726. Codec ID : S_HDMV/PGS
  727. Codec ID/Info : Picture based subtitle format used on BDs/HD-DVDs
  728. Duration : 2 h 40 min
  729. Bit rate : 29.1 kb/s
  730. Count of elements : 3334
  731. Stream size : 33.5 MiB (0%)
  732. Title : Romanian-PGS
  733. Language : Romanian
  734. Default : No
  735. Forced : No

  736. Text #32
  737. ID : 46
  738. Format : PGS
  739. Muxing mode : zlib
  740. Codec ID : S_HDMV/PGS
  741. Codec ID/Info : Picture based subtitle format used on BDs/HD-DVDs
  742. Duration : 2 h 40 min
  743. Bit rate : 27.8 kb/s
  744. Count of elements : 3532
  745. Stream size : 32.0 MiB (0%)
  746. Title : Russian-PGS
  747. Language : Russian
  748. Default : No
  749. Forced : No

  750. Text #33
  751. ID : 47
  752. Format : PGS
  753. Muxing mode : zlib
  754. Codec ID : S_HDMV/PGS
  755. Codec ID/Info : Picture based subtitle format used on BDs/HD-DVDs
  756. Duration : 2 h 36 min
  757. Bit rate : 208 b/s
  758. Count of elements : 32
  759. Stream size : 239 KiB (0%)
  760. Title : Russian-FORCED-PGS
  761. Language : Russian
  762. Default : No
  763. Forced : No

  764. Text #34
  765. ID : 48
  766. Format : PGS
  767. Muxing mode : zlib
  768. Codec ID : S_HDMV/PGS
  769. Codec ID/Info : Picture based subtitle format used on BDs/HD-DVDs
  770. Duration : 2 h 40 min
  771. Bit rate : 27.9 kb/s
  772. Count of elements : 3532
  773. Stream size : 32.1 MiB (0%)
  774. Title : Serbian-PGS
  775. Language : Serbian
  776. Default : No
  777. Forced : No

  778. Text #35
  779. ID : 49
  780. Format : PGS
  781. Muxing mode : zlib
  782. Codec ID : S_HDMV/PGS
  783. Codec ID/Info : Picture based subtitle format used on BDs/HD-DVDs
  784. Duration : 2 h 40 min
  785. Bit rate : 25.2 kb/s
  786. Count of elements : 3518
  787. Stream size : 28.9 MiB (0%)
  788. Title : Slovak-PGS
  789. Language : Slovak
  790. Default : No
  791. Forced : No

  792. Text #36
  793. ID : 50
  794. Format : PGS
  795. Muxing mode : zlib
  796. Codec ID : S_HDMV/PGS
  797. Codec ID/Info : Picture based subtitle format used on BDs/HD-DVDs
  798. Duration : 2 h 40 min
  799. Bit rate : 25.5 kb/s
  800. Count of elements : 3036
  801. Stream size : 29.4 MiB (0%)
  802. Title : Slovenian-PGS
  803. Language : Slovenian
  804. Default : No
  805. Forced : No

  806. Text #37
  807. ID : 51
  808. Format : PGS
  809. Muxing mode : zlib
  810. Codec ID : S_HDMV/PGS
  811. Codec ID/Info : Picture based subtitle format used on BDs/HD-DVDs
  812. Duration : 2 h 40 min
  813. Bit rate : 29.6 kb/s
  814. Count of elements : 3462
  815. Stream size : 34.1 MiB (0%)
  816. Title : Spanish-PGS
  817. Language : Spanish
  818. Default : No
  819. Forced : No

  820. Text #38
  821. ID : 52
  822. Format : PGS
  823. Muxing mode : zlib
  824. Codec ID : S_HDMV/PGS
  825. Codec ID/Info : Picture based subtitle format used on BDs/HD-DVDs
  826. Duration : 2 h 40 min
  827. Bit rate : 259 b/s
  828. Count of elements : 30
  829. Stream size : 305 KiB (0%)
  830. Title : Spanish-FORCED-PGS
  831. Language : Spanish
  832. Default : No
  833. Forced : No

  834. Text #39
  835. ID : 53
  836. Format : PGS
  837. Muxing mode : zlib
  838. Codec ID : S_HDMV/PGS
  839. Codec ID/Info : Picture based subtitle format used on BDs/HD-DVDs
  840. Duration : 2 h 40 min
  841. Bit rate : 25.3 kb/s
  842. Count of elements : 3526
  843. Stream size : 29.1 MiB (0%)
  844. Title : Thai-PGS
  845. Language : Thai
  846. Default : No
  847. Forced : No

  848. Text #40
  849. ID : 54
  850. Format : PGS
  851. Muxing mode : zlib
  852. Codec ID : S_HDMV/PGS
  853. Codec ID/Info : Picture based subtitle format used on BDs/HD-DVDs
  854. Duration : 2 h 30 min
  855. Bit rate : 668 b/s
  856. Count of elements : 86
  857. Stream size : 738 KiB (0%)
  858. Title : Thai-FORCED-PGS
  859. Language : Thai
  860. Default : No
  861. Forced : No

  862. Text #41
  863. ID : 55
  864. Format : PGS
  865. Muxing mode : zlib
  866. Codec ID : S_HDMV/PGS
  867. Codec ID/Info : Picture based subtitle format used on BDs/HD-DVDs
  868. Duration : 2 h 36 min
  869. Bit rate : 997 b/s
  870. Count of elements : 112
  871. Stream size : 1.12 MiB (0%)
  872. Title : French-FORCED-PGS
  873. Language : French
  874. Default : No
  875. Forced : No

  876. Text #42
  877. ID : 56
  878. Format : PGS
  879. Muxing mode : zlib
  880. Codec ID : S_HDMV/PGS
  881. Codec ID/Info : Picture based subtitle format used on BDs/HD-DVDs
  882. Duration : 2 h 36 min
  883. Bit rate : 997 b/s
  884. Count of elements : 112
  885. Stream size : 1.12 MiB (0%)
  886. Title : French-FORCED-PGS
  887. Language : French
  888. Default : No
  889. Forced : No

  890. Menu
  891. 00:00:00.000 : en:Chapter 01
  892. 00:04:49.330 : en:Chapter 02
  893. 00:13:45.199 : en:Chapter 03
  894. 00:18:28.899 : en:Chapter 04
  895. 00:22:00.319 : en:Chapter 05
  896. 00:25:59.349 : en:Chapter 06
  897. 00:28:41.344 : en:Chapter 07
  898. 00:33:45.064 : en:Chapter 08
  899. 00:40:19.333 : en:Chapter 09
  900. 00:49:59.413 : en:Chapter 10
  901. 00:51:48.688 : en:Chapter 11
  902. 00:59:52.714 : en:Chapter 12
  903. 01:02:32.874 : en:Chapter 13
  904. 01:04:28.614 : en:Chapter 14
  905. 01:09:16.735 : en:Chapter 15
  906. 01:17:40.447 : en:Chapter 16
  907. 01:20:25.779 : en:Chapter 17
  908. 01:26:28.433 : en:Chapter 18
  909. 01:32:54.443 : en:Chapter 19
  910. 01:39:58.200 : en:Chapter 20
  911. 01:47:55.218 : en:Chapter 21
  912. 01:53:00.190 : en:Chapter 22
  913. 01:58:09.373 : en:Chapter 23
  914. 02:06:23.701 : en:Chapter 24
  915. 02:11:22.958 : en:Chapter 25
  916. 02:15:50.100 : en:Chapter 26
  917. 02:21:30.190 : en:Chapter 27
  918. 02:29:50.523 : en:Chapter 28
  919. 02:36:28.379 : en:Chapter 29
  920. 02:38:51.230 : en:Chapter 30
复制代码

好莱坞往事 Once.Upon.a.Time.in.Hollywood.2019.2160p.BluRay.REMUX.HEVC.DTS-HD.MA.7.1-FGT 75.23GB-2.png 好莱坞往事 Once.Upon.a.Time.in.Hollywood.2019.2160p.BluRay.REMUX.HEVC.DTS-HD.MA.7.1-FGT 75.23GB-3.png 好莱坞往事 Once.Upon.a.Time.in.Hollywood.2019.2160p.BluRay.REMUX.HEVC.DTS-HD.MA.7.1-FGT 75.23GB-4.png




本帖隐藏的下载地址需要VIP会员才可阅读,您需要升级才可阅读,点击这里升级VIP
VIP会员免费任意下载本站所有资源!---点击开通
回复

使用道具 举报

级别:初级观众 Lv.1

注册时间
2019-11-30
最后登录
2019-11-30
听众
0
收听
0
主题
0
蓝光币
1 枚
贡献
0 点
发表于 2019-11-30 22:07:01 | 显示全部楼层
楼主发贴辛苦了,谢谢楼主分享!我觉得中国高清电影网是注册对了!
VIP会员免费任意下载本站所有资源!---点击开通
回复

使用道具 举报

级别:初级观众 Lv.1

注册时间
2019-1-18
最后登录
2019-12-1
听众
7
收听
0
主题
0
蓝光币
2 枚
贡献
0 点
发表于 2019-12-1 17:21:34 | 显示全部楼层

楼主太厉害了!楼主,电影应该很好看我觉得中国高清电影网真是个好地方!
VIP会员免费任意下载本站所有资源!---点击开通
回复

使用道具 举报

级别:群众演员 Lv.3

注册时间
2019-12-1
最后登录
2019-12-10
听众
1
收听
0
主题
0
蓝光币
34 枚
贡献
0 点
发表于 2019-12-1 21:45:32 | 显示全部楼层

论坛不能没有像楼主这样的人才啊!我会一直支持中国高清电影网
VIP会员免费任意下载本站所有资源!---点击开通
回复

使用道具 举报

级别:普通观众 Lv.2

注册时间
2019-11-22
最后登录
2019-12-8
听众
1
收听
0
主题
0
蓝光币
3 枚
贡献
0 点
发表于 7 天前 | 显示全部楼层

楼主太厉害了!楼主,电影应该很好看我觉得中国高清电影网真是个好地方!
VIP会员免费任意下载本站所有资源!---点击开通
回复

使用道具 举报

懒得打字嘛,点击右侧快捷回复 【右侧内容,后台自定义】
您需要登录后才可以回帖 登录 | 立即注册

本版积分规则

QQ|Archiver|手机版|小黑屋| 中国高清网 |网站地图

GMT+8, 2019-12-10 15:28 , Processed in 0.295011 second(s), 37 queries .

Powered by HDchina X3.4

Copyright 2017-2019©HDchina.All right reserved

返回顶部 联系我们