查看: 262|回复: 23

[剧情片] 好莱坞往事 Once.Upon.a.Time.in.Hollywood.2019.1080p.BluRay.x264.DTS-HD.MA.7.1-FGT 13.70GB

[复制链接]

 成长值: 3410

级别:资源管理组

注册时间
2017-10-20
最后登录
2019-12-10
听众
1
收听
0
主题
88361
蓝光币
69798 枚
贡献
12723 点
发表于 2019-11-30 21:20:00 | 显示全部楼层 |阅读模式
好莱坞往事 Once.Upon.a.Time.in.Hollywood.2019.1080p.BluRay.x264.DTS-HD.MA.7.1-FGT 13.70GB-1.png

◎译  名 好莱坞往事 / Once Upon a Time in Hollywood / Once Upon a Time in… Hollywood / 畴前,有个好莱坞...(台) / 畴前,有个荷里活(港) / 好莱坞杀人事务 / 荷里活往事
◎片  名 Once Upon a Time... in Hollywood
◎年  代 2019
◎产  地 英国 / 美国 / 中国大陆
◎类  别 剧情 / 笑剧
◎语  言 英语
◎上映日期 2019(中国大陆) / 2019-05-21(戛纳电影节) / 2019-07-26(美国)
◎IMDb评分 8.0/10 from 228656 users
◎IMDb链接 https://www.imdb.com/title/tt7131622
◎豆瓣评分 7.5/10 from 16309 users
◎豆瓣链接 https://movie.douban.com/subject/27087724/
◎片  长 165分钟
◎导  演 昆汀·塔伦蒂诺 Quentin Tarantino
◎编  剧 昆汀·塔伦蒂诺 Quentin Tarantino
◎主  演 莱昂纳多·迪卡普里奥 Leonardo DiCaprio
      布拉德·皮特 Brad Pitt
      玛格特·罗比 Margot Robbie
      埃米尔·赫斯基 Emile Hirsch
      玛格丽特·库里 Margaret Qualley
      蒂莫西·奥利芬特 Timothy Olyphant
      茱莉亚·巴特斯 Julia Butters
      奥斯汀·巴特勒 Austin Butler
      达科塔·范宁 Dakota Fanning
      布鲁斯·邓恩 Bruce Dern
      麦克·莫 Mike Moh
      卢克·贝里 Luke Perry
      戴米恩·路易斯 Damian Lewis
      库尔特·拉塞尔 Kurt Russell
      阿尔·帕西诺 Al Pacino
      玛雅·霍克 Maya Hawke
      西德妮·斯维尼 Sydney Sweeney
      哈莉·奎恩·史姑娘 Harley Quinn Smith
      达蒙·海瑞曼 Damon Herriman
      凯特·贝兰特 Kate Berlant
      洛伦扎·伊佐 Lorenza Izzo
      迈克尔·马德森 Michael Madsen
      拉莫·威利斯 Rumer Willis
      斯科特·麦克纳里 Scoot McNairy
      小克利夫顿·克林斯 Clifton Collins Jr.
      维多利亚·佩德雷蒂 Victoria Pedretti
      吕蓓卡·盖哈特 Rebecca Gayheart
      佐伊·贝尔 Zoe Bell
      莱斯利·贝加 Leslie Bega
      瑞贝卡·瑞滕豪斯 Rebecca Rittenhouse
      萨曼莎·罗宾森 Samantha Robinson
      莉娜·邓纳姆 Lena Dunham
      德瑞玛·沃克 Dreama Walker
      克鲁·古拉格 Clu Gulager
      丹妮拉·皮克 Daniela Pick
      布伦达·瓦卡罗 Brenda Vaccaro
      尼古拉斯·哈蒙德 Nicholas Hammond
      米奇·麦迪森 Mikey Madison
      詹姆斯·兰德里·赫伯特 James Landry Hébert
      妮可·加利西亚 Nichole Galicia
      麦迪逊·贝蒂 Madisen Beaty
      佩内洛普·卡普迪雅 Penelope Kapudija
      莫里斯·孔特 Maurice Compte
      科斯塔·罗宁 Costa Ronin
      卢·坦普尔 Lew Temple
      斯宾塞·加雷特 Spencer Garrett
      Brianna Joy Chomer
      奥玛·杜姆 Omar Doom
      娜塔莉·科恩 Natalie Cohen
      拉法尔·扎维鲁查 Rafal Zawierucha
      马尔科·罗德里格斯 Marco Rodríguez
      Kansas Skye
      维森特·拉雷斯卡 Vincent Laresca
      殷巴尔·阿米拉夫 Inbal Amirav
      拉蒙·弗兰克 Ramón Franco
      莫妮卡·斯塔吉丝 Monica Staggs
      克雷格·斯塔克 Craig Stark
      大卫·斯廷 David Steen
      朱丽叶·吉达 Juliette Kida
      埃迪·佩雷斯 Eddie Perez
      布蕾迪·拉多娜 Bridie Latona
      凯拉·拉多姆斯基 Kayla Radomski
      布里安娜·温 Breanna Wing
      Carolina Vargas
      Gary Private


◎标  签 美国 | 犯罪 | 剧情 | 2019 | 黑色诙谐 | 惊悚 | 列传 | 实在事务改编

◎简  介

  故事在1969年瞬息万变的洛杉矶展开,在阿谁如火如荼的变化时代,嬉皮文化流行,好莱坞大制片厂制度崩溃,新的好莱坞明星纷纷突起。电视明星里克·道尔顿(莱昂纳多·迪卡普里奥 Leonardo DiCaprio饰)与他持久合作替人同伴克里夫·布斯(布拉德·皮特 Brad Pitt 饰)若何在逐步陌生的文娱圈里,找到自己的一席之地。他们正力图扬名电影圈,却发现这个行业早已不是他们设想的样子了…… 这是昆汀自编自导第9部影片,聚集星光闪闪的卡司与交织的情节,纪念好莱坞不再复返的黄金年月。

◎获奖情况

  第72届戛纳电影节(2019)
  主比赛单元 金棕榈奖(提名) 昆汀·塔伦蒂诺

  第72届洛迦诺国际电影节(2019)
  Variety Piazza Grande Award(提名) 昆汀·塔伦蒂诺

  第7届美国化装及发型设想工会奖(2020)
  电影类最好年月戏化装(提名)
  电影类最好年月戏发型设想(提名)

  第5届豆瓣电影年度榜单(2018)
  1. Video
  2. ID : 1
  3. Format : AVC
  4. Format/Info : Advanced Video Codec
  5. Format profile : [email]High@L4.1[/email]
  6. Format settings : CABAC / 5 Ref Frames
  7. Format settings, CABAC : Yes
  8. Format settings, Reference frames : 5 frames
  9. Codec ID : V_MPEG4/ISO/AVC
  10. Duration : 2 h 41 min
  11. Bit rate : 9 152 kb/s
  12. Width : 1 920 pixels
  13. Height : 800 pixels
  14. Display aspect ratio : 2.40:1
  15. Frame rate mode : Constant
  16. Frame rate : 23.976 (24000/1001) FPS
  17. Color space : YUV
  18. Chroma subsampling : 4:2:0
  19. Bit depth : 8 bits
  20. Scan type : Progressive
  21. Bits/(Pixel*Frame) : 0.249
  22. Stream size : 10.3 GiB (75%)
  23. Title : Once.Upon.a.Time.in.Hollywood.2019.1080p.BluRay.x264.DTS-HD.MA.7.1-FGT
  24. Writing library : x264 core 158 r2988 7817004
  25. Encoding settings : cabac=1 / ref=5 / deblock=1:-3:-3 / analyse=0x3:0x113 / me=umh / subme=8 / psy=1 / psy_rd=1.00:0.00 / mixed_ref=1 / me_range=16 / chroma_me=1 / trellis=1 / 8x8dct=1 / cqm=0 / deadzone=21,11 / fast_pskip=1 / chroma_qp_offset=-2 / threads=25 / lookahead_threads=4 / sliced_threads=0 / nr=0 / decimate=1 / interlaced=0 / bluray_compat=0 / constrained_intra=0 / bframes=3 / b_pyramid=2 / b_adapt=1 / b_bias=0 / direct=3 / weightb=1 / open_gop=0 / weightp=2 / keyint=250 / keyint_min=23 / scenecut=40 / intra_refresh=0 / rc_lookahead=50 / rc=2pass / mbtree=1 / bitrate=9152 / ratetol=1.0 / qcomp=0.60 / qpmin=0 / qpmax=69 / qpstep=4 / cplxblur=20.0 / qblur=0.5 / ip_ratio=1.40 / aq=1:1.00
  26. Language : English
  27. Default : Yes
  28. Forced : No

  29. Audio
  30. ID : 2
  31. Format : DTS XLL
  32. Format/Info : Digital Theater Systems
  33. Commercial name : DTS-HD Master Audio
  34. Codec ID : A_DTS
  35. Duration : 2 h 41 min
  36. Bit rate mode : Variable
  37. Bit rate : 2 560 kb/s
  38. Channel(s) : 8 channels
  39. Channel layout : C L R LFE Lb Rb Lss Rss
  40. Sampling rate : 48.0 kHz
  41. Frame rate : 93.750 FPS (512 SPF)
  42. Bit depth : 16 bits
  43. Compression mode : Lossless
  44. Stream size : 2.89 GiB (21%)
  45. Title : Once.Upon.a.Time.in.Hollywood.2019.1080p.BluRay.x264.DTS-HD.MA.7.1-FGT
  46. Language : English
  47. Default : Yes
  48. Forced : No

  49. Text #1
  50. ID : 3
  51. Format : UTF-8
  52. Codec ID : S_TEXT/UTF8
  53. Codec ID/Info : UTF-8 Plain Text
  54. Duration : 2 h 39 min
  55. Bit rate : 56 b/s
  56. Count of elements : 2130
  57. Stream size : 65.8 KiB (0%)
  58. Title : English-SRT
  59. Language : English
  60. Default : Yes
  61. Forced : No

  62. Text #2
  63. ID : 4
  64. Format : UTF-8
  65. Codec ID : S_TEXT/UTF8
  66. Codec ID/Info : UTF-8 Plain Text
  67. Duration : 2 h 40 min
  68. Bit rate : 64 b/s
  69. Count of elements : 2542
  70. Stream size : 76.3 KiB (0%)
  71. Title : English-SDH-SRT
  72. Language : English
  73. Default : No
  74. Forced : No

  75. Text #3
  76. ID : 5
  77. Format : PGS
  78. Muxing mode : zlib
  79. Codec ID : S_HDMV/PGS
  80. Codec ID/Info : Picture based subtitle format used on BDs/HD-DVDs
  81. Duration : 2 h 39 min
  82. Bit rate : 33.7 kb/s
  83. Count of elements : 3588
  84. Stream size : 38.4 MiB (0%)
  85. Title : English-PGS
  86. Language : English
  87. Default : No
  88. Forced : No

  89. Text #4
  90. ID : 6
  91. Format : PGS
  92. Muxing mode : zlib
  93. Codec ID : S_HDMV/PGS
  94. Codec ID/Info : Picture based subtitle format used on BDs/HD-DVDs
  95. Duration : 2 h 40 min
  96. Bit rate : 37.2 kb/s
  97. Count of elements : 4116
  98. Stream size : 42.8 MiB (0%)
  99. Title : English-SDH-PGS
  100. Language : English
  101. Default : No
  102. Forced : No

  103. Text #5
  104. ID : 7
  105. Format : PGS
  106. Muxing mode : zlib
  107. Codec ID : S_HDMV/PGS
  108. Codec ID/Info : Picture based subtitle format used on BDs/HD-DVDs
  109. Duration : 2 h 40 min
  110. Bit rate : 16.4 kb/s
  111. Count of elements : 3499
  112. Stream size : 18.9 MiB (0%)
  113. Title : Arabic-PGS
  114. Language : Arabic
  115. Default : No
  116. Forced : No

  117. Text #6
  118. ID : 8
  119. Format : PGS
  120. Muxing mode : zlib
  121. Codec ID : S_HDMV/PGS
  122. Codec ID/Info : Picture based subtitle format used on BDs/HD-DVDs
  123. Duration : 2 h 40 min
  124. Bit rate : 27.7 kb/s
  125. Count of elements : 3530
  126. Stream size : 31.9 MiB (0%)
  127. Title : Bulgarian-PGS
  128. Language : Bulgarian
  129. Default : No
  130. Forced : No

  131. Text #7
  132. ID : 9
  133. Format : PGS
  134. Muxing mode : zlib
  135. Codec ID : S_HDMV/PGS
  136. Codec ID/Info : Picture based subtitle format used on BDs/HD-DVDs
  137. Duration : 2 h 40 min
  138. Bit rate : 22.1 kb/s
  139. Count of elements : 3538
  140. Stream size : 25.5 MiB (0%)
  141. Title : Chinese-PGS
  142. Language : Chinese
  143. Default : No
  144. Forced : No

  145. Text #8
  146. ID : 10
  147. Format : PGS
  148. Muxing mode : zlib
  149. Codec ID : S_HDMV/PGS
  150. Codec ID/Info : Picture based subtitle format used on BDs/HD-DVDs
  151. Duration : 2 h 40 min
  152. Bit rate : 24.8 kb/s
  153. Count of elements : 3538
  154. Stream size : 28.5 MiB (0%)
  155. Title : Chinese-PGS
  156. Language : Chinese
  157. Default : No
  158. Forced : No

  159. Text #9
  160. ID : 11
  161. Format : PGS
  162. Muxing mode : zlib
  163. Codec ID : S_HDMV/PGS
  164. Codec ID/Info : Picture based subtitle format used on BDs/HD-DVDs
  165. Duration : 2 h 40 min
  166. Bit rate : 26.0 kb/s
  167. Count of elements : 3520
  168. Stream size : 29.9 MiB (0%)
  169. Title : Chinese-PGS
  170. Language : Chinese
  171. Default : No
  172. Forced : No

  173. Text #10
  174. ID : 12
  175. Format : PGS
  176. Muxing mode : zlib
  177. Codec ID : S_HDMV/PGS
  178. Codec ID/Info : Picture based subtitle format used on BDs/HD-DVDs
  179. Duration : 2 h 40 min
  180. Bit rate : 26.6 kb/s
  181. Count of elements : 3504
  182. Stream size : 30.6 MiB (0%)
  183. Title : Croatian-PGS
  184. Language : Croatian
  185. Default : No
  186. Forced : No

  187. Text #11
  188. ID : 13
  189. Format : PGS
  190. Muxing mode : zlib
  191. Codec ID : S_HDMV/PGS
  192. Codec ID/Info : Picture based subtitle format used on BDs/HD-DVDs
  193. Duration : 2 h 40 min
  194. Bit rate : 27.7 kb/s
  195. Count of elements : 3488
  196. Stream size : 31.9 MiB (0%)
  197. Title : Czech-PGS
  198. Language : Czech
  199. Default : No
  200. Forced : No

  201. Text #12
  202. ID : 14
  203. Format : PGS
  204. Muxing mode : zlib
  205. Codec ID : S_HDMV/PGS
  206. Codec ID/Info : Picture based subtitle format used on BDs/HD-DVDs
  207. Duration : 2 h 40 min
  208. Bit rate : 26.9 kb/s
  209. Count of elements : 3792
  210. Stream size : 30.9 MiB (0%)
  211. Title : Estonian-PGS
  212. Language : Estonian
  213. Default : No
  214. Forced : No

  215. Text #13
  216. ID : 15
  217. Format : PGS
  218. Muxing mode : zlib
  219. Codec ID : S_HDMV/PGS
  220. Codec ID/Info : Picture based subtitle format used on BDs/HD-DVDs
  221. Duration : 2 h 40 min
  222. Bit rate : 27.3 kb/s
  223. Count of elements : 3317
  224. Stream size : 31.4 MiB (0%)
  225. Title : French-PGS
  226. Language : French
  227. Default : No
  228. Forced : No

  229. Text #14
  230. ID : 16
  231. Format : PGS
  232. Muxing mode : zlib
  233. Codec ID : S_HDMV/PGS
  234. Codec ID/Info : Picture based subtitle format used on BDs/HD-DVDs
  235. Duration : 2 h 39 min
  236. Bit rate : 31.1 kb/s
  237. Count of elements : 3470
  238. Stream size : 35.5 MiB (0%)
  239. Title : Greek-PGS
  240. Language : Greek
  241. Default : No
  242. Forced : No

  243. Text #15
  244. ID : 17
  245. Format : PGS
  246. Muxing mode : zlib
  247. Codec ID : S_HDMV/PGS
  248. Codec ID/Info : Picture based subtitle format used on BDs/HD-DVDs
  249. Duration : 2 h 40 min
  250. Bit rate : 22.5 kb/s
  251. Count of elements : 3498
  252. Stream size : 25.9 MiB (0%)
  253. Title : Hebrew-PGS
  254. Language : Hebrew
  255. Default : No
  256. Forced : No

  257. Text #16
  258. ID : 18
  259. Format : PGS
  260. Muxing mode : zlib
  261. Codec ID : S_HDMV/PGS
  262. Codec ID/Info : Picture based subtitle format used on BDs/HD-DVDs
  263. Duration : 2 h 40 min
  264. Bit rate : 28.2 kb/s
  265. Count of elements : 2908
  266. Stream size : 32.4 MiB (0%)
  267. Title : Hungarian-PGS
  268. Language : Hungarian
  269. Default : No
  270. Forced : No

  271. Text #17
  272. ID : 19
  273. Format : PGS
  274. Muxing mode : zlib
  275. Codec ID : S_HDMV/PGS
  276. Codec ID/Info : Picture based subtitle format used on BDs/HD-DVDs
  277. Duration : 2 h 40 min
  278. Bit rate : 28.8 kb/s
  279. Count of elements : 3268
  280. Stream size : 33.1 MiB (0%)
  281. Title : Icelandic-PGS
  282. Language : Icelandic
  283. Default : No
  284. Forced : No

  285. Text #18
  286. ID : 20
  287. Format : PGS
  288. Muxing mode : zlib
  289. Codec ID : S_HDMV/PGS
  290. Codec ID/Info : Picture based subtitle format used on BDs/HD-DVDs
  291. Duration : 2 h 40 min
  292. Bit rate : 29.9 kb/s
  293. Count of elements : 3394
  294. Stream size : 34.4 MiB (0%)
  295. Title : Indonesian-PGS
  296. Language : Indonesian
  297. Default : No
  298. Forced : No

  299. Text #19
  300. ID : 21
  301. Format : PGS
  302. Muxing mode : zlib
  303. Codec ID : S_HDMV/PGS
  304. Codec ID/Info : Picture based subtitle format used on BDs/HD-DVDs
  305. Duration : 2 h 40 min
  306. Bit rate : 22.4 kb/s
  307. Count of elements : 3539
  308. Stream size : 25.7 MiB (0%)
  309. Title : Korean-PGS
  310. Language : Korean
  311. Default : No
  312. Forced : No

  313. Text #20
  314. ID : 22
  315. Format : PGS
  316. Muxing mode : zlib
  317. Codec ID : S_HDMV/PGS
  318. Codec ID/Info : Picture based subtitle format used on BDs/HD-DVDs
  319. Duration : 2 h 40 min
  320. Bit rate : 27.7 kb/s
  321. Count of elements : 3728
  322. Stream size : 31.8 MiB (0%)
  323. Title : Latvian-PGS
  324. Language : Latvian
  325. Default : No
  326. Forced : No

  327. Text #21
  328. ID : 23
  329. Format : PGS
  330. Muxing mode : zlib
  331. Codec ID : S_HDMV/PGS
  332. Codec ID/Info : Picture based subtitle format used on BDs/HD-DVDs
  333. Duration : 2 h 40 min
  334. Bit rate : 27.2 kb/s
  335. Count of elements : 3468
  336. Stream size : 31.2 MiB (0%)
  337. Title : Lithuanian-PGS
  338. Language : Lithuanian
  339. Default : No
  340. Forced : No

  341. Text #22
  342. ID : 24
  343. Format : PGS
  344. Muxing mode : zlib
  345. Codec ID : S_HDMV/PGS
  346. Codec ID/Info : Picture based subtitle format used on BDs/HD-DVDs
  347. Duration : 2 h 40 min
  348. Bit rate : 26.9 kb/s
  349. Count of elements : 3474
  350. Stream size : 30.9 MiB (0%)
  351. Title : Polish-PGS
  352. Language : Polish
  353. Default : No
  354. Forced : No

  355. Text #23
  356. ID : 25
  357. Format : PGS
  358. Muxing mode : zlib
  359. Codec ID : S_HDMV/PGS
  360. Codec ID/Info : Picture based subtitle format used on BDs/HD-DVDs
  361. Duration : 2 h 40 min
  362. Bit rate : 29.5 kb/s
  363. Count of elements : 3414
  364. Stream size : 33.9 MiB (0%)
  365. Title : Portuguese-PGS
  366. Language : Portuguese
  367. Default : No
  368. Forced : No

  369. Text #24
  370. ID : 26
  371. Format : PGS
  372. Muxing mode : zlib
  373. Codec ID : S_HDMV/PGS
  374. Codec ID/Info : Picture based subtitle format used on BDs/HD-DVDs
  375. Duration : 2 h 40 min
  376. Bit rate : 30.4 kb/s
  377. Count of elements : 3510
  378. Stream size : 35.0 MiB (0%)
  379. Title : Portuguese-PGS
  380. Language : Portuguese
  381. Default : No
  382. Forced : No

  383. Text #25
  384. ID : 27
  385. Format : PGS
  386. Muxing mode : zlib
  387. Codec ID : S_HDMV/PGS
  388. Codec ID/Info : Picture based subtitle format used on BDs/HD-DVDs
  389. Duration : 2 h 40 min
  390. Bit rate : 29.1 kb/s
  391. Count of elements : 3334
  392. Stream size : 33.5 MiB (0%)
  393. Title : Romanian-PGS
  394. Language : Romanian
  395. Default : No
  396. Forced : No

  397. Text #26
  398. ID : 28
  399. Format : PGS
  400. Muxing mode : zlib
  401. Codec ID : S_HDMV/PGS
  402. Codec ID/Info : Picture based subtitle format used on BDs/HD-DVDs
  403. Duration : 2 h 40 min
  404. Bit rate : 27.8 kb/s
  405. Count of elements : 3532
  406. Stream size : 32.0 MiB (0%)
  407. Title : Russian-PGS
  408. Language : Russian
  409. Default : No
  410. Forced : No

  411. Text #27
  412. ID : 29
  413. Format : PGS
  414. Muxing mode : zlib
  415. Codec ID : S_HDMV/PGS
  416. Codec ID/Info : Picture based subtitle format used on BDs/HD-DVDs
  417. Duration : 2 h 40 min
  418. Bit rate : 27.9 kb/s
  419. Count of elements : 3532
  420. Stream size : 32.1 MiB (0%)
  421. Title : Serbian-PGS
  422. Language : Serbian
  423. Default : No
  424. Forced : No

  425. Text #28
  426. ID : 30
  427. Format : PGS
  428. Muxing mode : zlib
  429. Codec ID : S_HDMV/PGS
  430. Codec ID/Info : Picture based subtitle format used on BDs/HD-DVDs
  431. Duration : 2 h 40 min
  432. Bit rate : 25.2 kb/s
  433. Count of elements : 3518
  434. Stream size : 28.9 MiB (0%)
  435. Title : Slovak-PGS
  436. Language : Slovak
  437. Default : No
  438. Forced : No

  439. Text #29
  440. ID : 31
  441. Format : PGS
  442. Muxing mode : zlib
  443. Codec ID : S_HDMV/PGS
  444. Codec ID/Info : Picture based subtitle format used on BDs/HD-DVDs
  445. Duration : 2 h 40 min
  446. Bit rate : 25.5 kb/s
  447. Count of elements : 3036
  448. Stream size : 29.4 MiB (0%)
  449. Title : Slovenian-PGS
  450. Language : Slovenian
  451. Default : No
  452. Forced : No

  453. Text #30
  454. ID : 32
  455. Format : PGS
  456. Muxing mode : zlib
  457. Codec ID : S_HDMV/PGS
  458. Codec ID/Info : Picture based subtitle format used on BDs/HD-DVDs
  459. Duration : 2 h 40 min
  460. Bit rate : 29.6 kb/s
  461. Count of elements : 3462
  462. Stream size : 34.1 MiB (0%)
  463. Title : Spanish-PGS
  464. Language : Spanish
  465. Default : No
  466. Forced : No

  467. Text #31
  468. ID : 33
  469. Format : PGS
  470. Muxing mode : zlib
  471. Codec ID : S_HDMV/PGS
  472. Codec ID/Info : Picture based subtitle format used on BDs/HD-DVDs
  473. Duration : 2 h 40 min
  474. Bit rate : 25.3 kb/s
  475. Count of elements : 3526
  476. Stream size : 29.1 MiB (0%)
  477. Title : Thai-PGS
  478. Language : Thai
  479. Default : No
  480. Forced : No

  481. Text #32
  482. ID : 34
  483. Format : PGS
  484. Muxing mode : zlib
  485. Codec ID : S_HDMV/PGS
  486. Codec ID/Info : Picture based subtitle format used on BDs/HD-DVDs
  487. Duration : 2 h 36 min
  488. Bit rate : 997 b/s
  489. Count of elements : 112
  490. Stream size : 1.12 MiB (0%)
  491. Title : French-PGS
  492. Language : French
  493. Default : No
  494. Forced : No

  495. Menu
  496. 00:00:00.000 : en:00:00:00.000
  497. 00:04:49.414 : en:00:04:49.414
  498. 00:13:45.199 : en:00:13:45.199
  499. 00:18:29.150 : en:00:18:29.150
  500. 00:22:00.319 : en:00:22:00.319
  501. 00:25:59.349 : en:00:25:59.349
  502. 00:28:41.094 : en:00:28:41.094
  503. 00:33:45.106 : en:00:33:45.106
  504. 00:40:19.334 : en:00:40:19.334
  505. 00:49:59.455 : en:00:49:59.455
  506. 00:51:48.689 : en:00:51:48.689
  507. 00:59:52.255 : en:00:59:52.255
  508. 01:02:32.874 : en:01:02:32.874
  509. 01:04:28.615 : en:01:04:28.615
  510. 01:09:16.736 : en:01:09:16.736
  511. 01:17:40.781 : en:01:17:40.781
  512. 01:20:25.779 : en:01:20:25.779
  513. 01:26:28.433 : en:01:26:28.433
  514. 01:32:54.444 : en:01:32:54.444
  515. 01:39:58.492 : en:01:39:58.492
  516. 01:47:55.219 : en:01:47:55.219
  517. 01:53:00.232 : en:01:53:00.232
  518. 01:58:09.541 : en:01:58:09.541
  519. 02:06:23.993 : en:02:06:23.993
  520. 02:11:22.958 : en:02:11:22.958
  521. 02:15:50.100 : en:02:15:50.100
  522. 02:21:30.190 : en:02:21:30.190
  523. 02:29:50.732 : en:02:29:50.732
  524. 02:36:28.254 : en:02:36:28.254
  525. 02:38:51.230 : en:02:38:51.230
复制代码

好莱坞往事 Once.Upon.a.Time.in.Hollywood.2019.1080p.BluRay.x264.DTS-HD.MA.7.1-FGT 13.70GB-2.png 好莱坞往事 Once.Upon.a.Time.in.Hollywood.2019.1080p.BluRay.x264.DTS-HD.MA.7.1-FGT 13.70GB-3.png 好莱坞往事 Once.Upon.a.Time.in.Hollywood.2019.1080p.BluRay.x264.DTS-HD.MA.7.1-FGT 13.70GB-1.png




VIP会员免费任意下载本站所有资源!---点击开通
回复

使用道具 举报

级别:荣升主角 Lv.5

注册时间
2019-1-22
最后登录
2019-12-9
听众
14
收听
0
主题
0
蓝光币
124 枚
贡献
0 点
发表于 2019-12-1 12:14:05 | 显示全部楼层
楼主发贴辛苦了,谢谢楼主分享!我觉得中国高清电影网是注册对了!
VIP会员免费任意下载本站所有资源!---点击开通
回复

使用道具 举报

级别:初级观众 Lv.1

注册时间
2019-8-30
最后登录
2019-12-1
听众
2
收听
0
主题
0
蓝光币
21 枚
贡献
0 点
发表于 2019-12-1 14:51:05 | 显示全部楼层

这东西我收了!谢谢楼主!中国高清电影网真好!
VIP会员免费任意下载本站所有资源!---点击开通
回复

使用道具 举报

级别:初级观众 Lv.1

注册时间
2019-2-20
最后登录
2019-12-1
听众
9
收听
0
主题
0
蓝光币
9 枚
贡献
0 点
发表于 2019-12-1 15:13:09 | 显示全部楼层
感谢分享好片
VIP会员免费任意下载本站所有资源!---点击开通
回复

使用道具 举报

级别:初级观众 Lv.1

注册时间
2019-12-1
最后登录
2019-12-1
听众
0
收听
0
主题
0
蓝光币
0 枚
贡献
0 点
发表于 2019-12-1 18:27:02 | 显示全部楼层
谢谢分享!!!!
VIP会员免费任意下载本站所有资源!---点击开通
回复

使用道具 举报

级别:初级观众 Lv.1

注册时间
2019-11-28
最后登录
2019-12-10
听众
1
收听
0
主题
0
蓝光币
0 枚
贡献
0 点
发表于 2019-12-2 05:14:34 | 显示全部楼层
楼主发贴辛苦了,谢谢楼主分享!我觉得中国高清电影网是注册对了!
VIP会员免费任意下载本站所有资源!---点击开通
回复

使用道具 举报

级别:初级观众 Lv.1

注册时间
2019-11-28
最后登录
2019-12-10
听众
1
收听
0
主题
0
蓝光币
0 枚
贡献
0 点
发表于 2019-12-2 05:15:26 | 显示全部楼层

这个帖子不回对不起自己!我想我是一天也不能离开中国高清电影网
VIP会员免费任意下载本站所有资源!---点击开通
回复

使用道具 举报

级别:初级观众 Lv.1

注册时间
2019-11-26
最后登录
2019-12-7
听众
1
收听
0
主题
0
蓝光币
0 枚
贡献
0 点
QQ
发表于 2019-12-2 05:37:43 | 显示全部楼层
楼主发贴辛苦了,谢谢楼主分享!我觉得中国高清电影网是注册对了!
VIP会员免费任意下载本站所有资源!---点击开通
回复

使用道具 举报

级别:初级观众 Lv.1

注册时间
2018-8-24
最后登录
2019-12-4
听众
11
收听
0
主题
0
蓝光币
4 枚
贡献
0 点
发表于 2019-12-2 20:11:37 | 显示全部楼层

这东西我收了!谢谢楼主!中国高清电影网真好!
VIP会员免费任意下载本站所有资源!---点击开通
回复

使用道具 举报

级别:初级观众 Lv.1

注册时间
2019-12-2
最后登录
2019-12-7
听众
1
收听
0
主题
0
蓝光币
0 枚
贡献
0 点
发表于 2019-12-2 22:10:49 | 显示全部楼层
Thank a lot
VIP会员免费任意下载本站所有资源!---点击开通
回复

使用道具 举报

懒得打字嘛,点击右侧快捷回复 【右侧内容,后台自定义】
您需要登录后才可以回帖 登录 | 立即注册

本版积分规则

QQ|Archiver|手机版|小黑屋| 中国高清网 |网站地图

GMT+8, 2019-12-10 15:07 , Processed in 0.293945 second(s), 38 queries .

Powered by HDchina X3.4

Copyright 2017-2019©HDchina.All right reserved

返回顶部 联系我们