查看: 82|回复: 7

[剧情片] 寄生虫 Parasite.2019.KOREAN.720p.BluRay.x264.DTS-FGT 6.47GB

[复制链接]

 成长值: 3410

级别:资源管理组

注册时间
2017-10-20
最后登录
2019-12-10
听众
1
收听
0
主题
88361
蓝光币
69812 枚
贡献
12723 点
发表于 2019-11-30 15:45:39 | 显示全部楼层 |阅读模式
寄生虫 Parasite.2019.KOREAN.720p.BluRay.x264.DTS-FGT 6.47GB-1.png
& |, a; {, B0 O1 M6 L$ K( f
2 C0 i2 J) `; {" M* d; q% X8 E$ C译  名 寄生虫 / Gisaengchung / Parasite / 上流寄生族(港) / 寄生上流(台) / ?????/ }# y4 Z- X. V7 b( v: Y) R$ H$ l. W. Y
片  名 ???; y5 B7 V7 o% b, B: [6 Q
年  代 2019
4 e/ ?" X) K  e5 [) I: X# `7 x: `- G产  地 韩国, g. `) B' E, f  s5 f# @9 \* k
类  别 剧情# b0 a0 y) [" b3 t3 H
语  言 韩语0 ^% ]& ?7 q, ?' y2 m# @% Q. q. j
上映日期 2019-05-21(戛纳电影节) / 2019-05-30(韩国)
# Y% U3 k7 N' c* Q; RIMDb评分  8.6/10 from 10105 users2 b' ^; l& C8 T, ?' u3 k
IMDb链接  http://www.imdb.com/title/tt6751668
3 J4 q# q# S- j豆瓣评分 8.9/10 from 177472 users
4 N) y0 n1 j! B$ x. ^豆瓣链接 https://movie.douban.com/subject/27010768/
0 h1 \& g  p# A4 K! p% y3 i" V* b3 \6 E片  长 132分钟
% w& q7 V" \, e1 j$ _导  演 奉俊昊 Joon-ho Bong
! p, z+ e5 S/ P) K5 C编  剧 奉俊昊 Joon-ho Bong& {( d" M  k, }# S
主  演 宋康昊 Kang-ho Song+ e" O, A2 E$ d0 v2 e6 s/ Z; N
       李善均 Seon-gyun Lee
  |" {  m( \. [, K       赵汝贞 Yeo-Jeong Jo
) c: C* ]7 E* h, Y3 S! d9 h       崔宇植 Woo-Sik Choi# a  ^. ?  B' X+ \+ p
       朴实丹 Su-dam Park! |) M. R3 r4 |( b

5 M6 }/ c' q2 b" V3 M2 Y3 k6 Y8 {: ]% t
标  签 韩国 | 人性 | 剧情 | 社会 | 2019 | 黑色诙谐 | 戛纳 | 金棕榈
9 f* Y* t4 T# F" N- b6 m3 q! A, g0 }7 q+ L; }7 @  j1 f+ C* e. z
简  介  
# t8 H9 h' r7 |( l5 R+ \0 }, b/ p$ _. K
  《寄生虫》报告了发生在身份职位悬殊的两个家庭身上的故事:宋康昊饰演的无业游民父亲基泽,让依靠了家人生存希望的大儿子(崔宇植 饰)前往IT公司老总朴社长(李善均 饰)家招聘课外教师,随之发生了连续串意外事务。: f$ r; [1 \8 ]5 _* t

# m( f0 S  O' s) M7 U) h获奖情况  " b$ x1 _0 o1 l% f( U* f0 c
- z4 \% f( _$ l9 m# k; O) G5 {+ \* Z
  第72届戛纳电影节(2019)
, t+ j, ]; ]* _5 Q6 ]5 a1 a' E+ L6 n  主比赛单元 金棕榈奖 奉俊昊
7 a6 a8 P  P- X9 ~% K& h' t6 J1 S: L
  1. Video
    & o& e# Q) A1 U" F9 b/ ^; R
  2. ID                                       : 1
    5 K8 ^( g$ r, A1 C3 E+ S
  3. Format                                   : AVC, G4 W  _( X% a. T
  4. Format/Info                              : Advanced Video Codec
    8 q  h1 N& d' w- u& ?# e" k5 Z) |; d
  5. Format profile                           : High@L4* J$ f8 @0 B4 Z. o7 T# ~
  6. Format settings                          : CABAC / 4 Ref Frames
    7 e  M0 z- E. b% H
  7. Format settings, CABAC                   : Yes
    # v1 `" A/ I5 x2 B+ U$ U* q$ Q
  8. Format settings, Reference frames        : 4 frames
    % X1 U- |. O! U
  9. Codec ID                                 : V_MPEG4/ISO/AVC
    3 u0 J% s( H% P
  10. Duration                                 : 2 h 12 min
    $ N4 h/ L, v" T( r
  11. Bit rate                                 : 5 500 kb/s+ X6 |" i2 ~$ Y' I8 X
  12. Width                                    : 1 280 pixels# V% f6 J8 _+ D2 l3 _2 f& g8 t
  13. Height                                   : 536 pixels  C( l) f  i/ ]. l0 ^) O1 w' B7 W
  14. Display aspect ratio                     : 2.40:1
    * D- z) u) ?, P. j& e" `' p2 Y
  15. Frame rate mode                          : Constant: @0 m) y" b" L
  16. Frame rate                               : 23.976 (24000/1001) FPS% G% L  _: t4 p. z+ s4 F# a+ j
  17. Color space                              : YUV; ?. K4 m* B" c3 ]
  18. Chroma subsampling                       : 4:2:0
    ; ^( Y' y( c5 V9 q. \
  19. Bit depth                                : 8 bits
    7 q: T2 @  U2 Q2 A7 x  Q
  20. Scan type                                : Progressive; \: j, @; t+ U' E5 G2 I+ d2 d( u
  21. Bits/(Pixel*Frame)                       : 0.334+ S& M7 f4 O1 I: }2 d7 W) X
  22. Stream size                              : 5.07 GiB (78%)
    * p2 e) l. K0 ~% v5 r0 d+ ]
  23. Title                                    : Parasite.2019.KOREAN.720p.BluRay.x264.DTS-FGT* e- A$ X8 u5 Q
  24. Writing library                          : x264 core 148 r2795M aaa9aa8
    & ^% \5 W, L: b& r& V# m3 n
  25. Encoding settings                        : cabac=1 / ref=4 / deblock=1:-2:-2 / analyse=0x3:0x113 / me=umh / subme=9 / psy=1 / psy_rd=1.00:0.15 / mixed_ref=1 / me_range=16 / chroma_me=1 / trellis=2 / 8x8dct=1 / cqm=0 / deadzone=21,11 / fast_pskip=1 / chroma_qp_offset=-3 / threads=72 / lookahead_threads=3 / sliced_threads=0 / nr=0 / decimate=1 / interlaced=0 / bluray_compat=0 / constrained_intra=0 / bframes=3 / b_pyramid=2 / b_adapt=1 / b_bias=0 / direct=3 / weightb=1 / open_gop=0 / weightp=2 / keyint=250 / keyint_min=25 / scenecut=40 / intra_refresh=0 / rc_lookahead=50 / rc=2pass / mbtree=1 / bitrate=5500 / ratetol=1.0 / qcomp=0.60 / qpmin=0 / qpmax=69 / qpstep=4 / cplxblur=20.0 / qblur=0.5 / vbv_maxrate=31250 / vbv_bufsize=31250 / nal_hrd=none / filler=0 / ip_ratio=1.40 / aq=1:1.003 \# }4 b9 @* `7 P5 y: Y9 F! e( G
  26. Language                                 : Korean
    ; t( B5 W# ~: b# |3 T
  27. Default                                  : Yes2 N' N9 C7 q# x; Z; g3 ?
  28. Forced                                   : No. k6 x# v4 K6 ?( Y* G4 C6 Q* Y
  29. 7 E1 v2 f" Z' w# V) p
  30. Audio* w9 O9 K0 W9 b0 _2 Y  }
  31. ID                                       : 2
    1 c; M7 P9 p" E( p0 n, [; d  M8 f
  32. Format                                   : DTS, r0 @! c( V. i6 }1 `0 r+ R# u" d
  33. Format/Info                              : Digital Theater Systems' f2 a* g* _& @' \: c3 z
  34. Codec ID                                 : A_DTS$ R: h9 V4 r+ L  Q  v, z
  35. Duration                                 : 2 h 12 min
    + f/ x# Z7 Y7 S1 n0 a
  36. Bit rate mode                            : Constant
    1 Z% z5 p# H0 R! K. E; u
  37. Bit rate                                 : 1 509 kb/s
    $ `5 w  s& }$ X' S$ d
  38. Channel(s)                               : 6 channels- I& m5 t0 Z2 @+ X, {! ], u
  39. Channel layout                           : C L R Ls Rs LFE
    ! U7 ^' c+ }# c$ r
  40. Sampling rate                            : 48.0 kHz9 c  o$ b- Z7 P( N+ y1 z
  41. Frame rate                               : 93.750 FPS (512 SPF)8 }7 J% S1 e1 X9 q& ^
  42. Bit depth                                : 24 bits5 }  }4 R; w  P/ D8 }; y4 B
  43. Compression mode                         : Lossy
    # P9 e2 D0 O' M  C
  44. Stream size                              : 1.39 GiB (22%)- X1 m( }, w. V6 O" o4 p
  45. Title                                    : Parasite.2019.KOREAN.720p.BluRay.x264.DTS-FGT  ~) Q, x3 o- g7 l7 X% m
  46. Language                                 : Korean. ]) c( u1 p4 H- g( z: |8 ?
  47. Default                                  : Yes5 v9 W) W3 Y5 U3 S; T3 {
  48. Forced                                   : No
    1 Q) C! N) r! J: n" g( J

  49. 1 g1 \/ D; h7 q: F: |
  50. Text
    . z( I, I6 X; k7 D' L! r1 B
  51. ID                                       : 3
    1 `; E9 V/ e" Q- @9 k  g
  52. Format                                   : UTF-8, x2 ?) p/ y3 k/ A0 j
  53. Codec ID                                 : S_TEXT/UTF8! N& ?' n* W+ I. E1 i7 L* z6 e( X8 }
  54. Codec ID/Info                            : UTF-8 Plain Text
    2 C# A% s5 W; a- _
  55. Duration                                 : 2 h 5 min- m, x! f3 _) V( L* n3 `
  56. Bit rate                                 : 53 b/s% i- l2 a3 ]# ~; P! G7 {, p
  57. Count of elements                        : 1647% r# `! g% j: K
  58. Stream size                              : 49.3 KiB (0%). h( z" l9 `' m: _: v8 |
  59. Language                                 : English
    * h& O! `1 U5 C& I/ ~/ D8 F, E
  60. Default                                  : Yes
    5 N4 J1 Z2 m6 V5 b( Q
  61. Forced                                   : No1 ]$ d# H  n4 i2 c3 X/ |' n

  62. ; w" H& Y2 h4 y& C/ \
  63. Menu9 A* z! R) v5 h% l+ D
  64. 00:00:00.000                             : en:Chapter 1
    2 |( }" P9 i5 N# y: d- E
  65. 00:05:44.802                             : en:Chapter 2
    4 b; W# F, m! L1 j5 I
  66. 00:12:16.610                             : en:Chapter 3
    , |6 x5 m% d$ t4 U$ g
  67. 00:20:35.484                             : en:Chapter 4! w/ Y/ F0 l' F- H& U" ]
  68. 00:29:21.926                             : en:Chapter 53 [9 O, a' d2 `
  69. 00:37:05.348                             : en:Chapter 6
    % E/ d. Q. }$ @4 C$ c8 C+ n7 [
  70. 00:46:19.943                             : en:Chapter 7
    1 ?7 ], a) x4 V& y% c6 g5 h
  71. 00:53:52.979                             : en:Chapter 81 Y# K& Y- L6 I/ E( E
  72. 01:02:55.646                             : en:Chapter 9
    4 d$ ]- F, _7 M( o" B& o
  73. 01:12:10.242                             : en:Chapter 10  E1 y6 G. k; n
  74. 01:23:25.834                             : en:Chapter 11+ d$ g5 |! d7 Q5 j, W- |# z
  75. 01:32:19.659                             : en:Chapter 12
    5 R+ ?4 [$ a7 M5 G  V
  76. 01:41:22.284                             : en:Chapter 13) v1 \& l8 W. i% d9 y" C
  77. 01:48:21.912                             : en:Chapter 14
    & W5 Z, ?' \1 B+ k; `
  78. 01:56:07.502                             : en:Chapter 15# o& {% n  f* }* w
  79. 02:07:06.744                             : en:Chapter 16
复制代码
& p: u" b% l1 Y6 @6 j6 X4 t) T
寄生虫 Parasite.2019.KOREAN.720p.BluRay.x264.DTS-FGT 6.47GB-2.png 寄生虫 Parasite.2019.KOREAN.720p.BluRay.x264.DTS-FGT 6.47GB-3.png 寄生虫 Parasite.2019.KOREAN.720p.BluRay.x264.DTS-FGT 6.47GB-4.png
' l( s" k7 j( m/ ?3 l0 Z6 Q' F
- M" h2 _; X) Y8 j( Z
! [4 U+ l6 k' Q7 ^3 k
0 y* l3 g9 x' m' M- @9 C$ j% A4 g7 k# D
( \' C2 P. p/ c0 ]

9 d& s5 P5 J) @9 k! K
, m& u$ S" H1 k) j7 t9 s  B8 N
本帖隐藏的下载地址需要VIP会员才可阅读,您需要升级才可阅读,点击这里升级VIP! P' v2 c9 Y. ?. G* [8 X5 z1 `
VIP会员免费任意下载本站所有资源!---点击开通
回复

使用道具 举报

级别:普通观众 Lv.2

注册时间
2019-11-22
最后登录
2019-12-7
听众
1
收听
0
主题
0
蓝光币
5 枚
贡献
0 点
发表于 2019-11-30 17:29:56 | 显示全部楼层
谢谢楼主分享
VIP会员免费任意下载本站所有资源!---点击开通
回复

使用道具 举报

级别:初级观众 Lv.1

注册时间
2019-11-22
最后登录
2019-12-1
听众
0
收听
0
主题
0
蓝光币
4 枚
贡献
0 点
发表于 2019-12-1 21:28:11 | 显示全部楼层
楼主发贴辛苦了,谢谢楼主分享!我觉得中国高清电影网是注册对了!
VIP会员免费任意下载本站所有资源!---点击开通
回复

使用道具 举报

级别:专业龙套 Lv.4

注册时间
2019-4-11
最后登录
2019-12-10
听众
13
收听
0
主题
0
蓝光币
183 枚
贡献
0 点
发表于 2019-12-2 08:44:42 | 显示全部楼层

7 k) F* J* Q( V2 |, o这个帖子不回对不起自己!我想我是一天也不能离开中国高清电影网
VIP会员免费任意下载本站所有资源!---点击开通
回复

使用道具 举报

级别:普通观众 Lv.2

注册时间
2019-11-29
最后登录
2019-12-9
听众
1
收听
0
主题
0
蓝光币
7 枚
贡献
0 点
发表于 2019-12-2 19:47:16 | 显示全部楼层
楼主发贴辛苦了,谢谢楼主分享!我觉得中国高清电影网是注册对了!
VIP会员免费任意下载本站所有资源!---点击开通
回复

使用道具 举报

级别:一线明星 Lv.8

注册时间
2019-4-24
最后登录
2019-12-10
听众
14
收听
0
主题
0
蓝光币
214 枚
贡献
0 点
发表于 7 天前 | 显示全部楼层
楼主发贴辛苦了,谢谢楼主分享!我觉得中国高清电影网是注册对了!
VIP会员免费任意下载本站所有资源!---点击开通
回复

使用道具 举报

级别:普通观众 Lv.2

注册时间
2019-1-18
最后登录
2019-12-4
听众
10
收听
0
主题
0
蓝光币
53 枚
贡献
0 点
发表于 6 天前 | 显示全部楼层

3 l: e- ~( V) M  A这东西我收了!谢谢楼主!中国高清电影网真好!
VIP会员免费任意下载本站所有资源!---点击开通
回复

使用道具 举报

级别:初级观众 Lv.1

注册时间
2019-12-6
最后登录
2019-12-6
听众
1
收听
0
主题
0
蓝光币
4 枚
贡献
0 点
发表于 4 天前 | 显示全部楼层
多谢分享字幕!
VIP会员免费任意下载本站所有资源!---点击开通
回复

使用道具 举报

懒得打字嘛,点击右侧快捷回复 【右侧内容,后台自定义】
您需要登录后才可以回帖 登录 | 立即注册

本版积分规则

QQ|Archiver|手机版|小黑屋| 中国高清网 |网站地图

GMT+8, 2019-12-10 15:36 , Processed in 0.273709 second(s), 37 queries .

Powered by HDchina X3.4

Copyright 2017-2019©HDchina.All right reserved

返回顶部 联系我们