查看: 52|回复: 7

[剧情片] 舞女大盗 Hustlers.2019.720p.BluRay.x264-AAA 4.37GB

[复制链接]

 成长值: 3410

级别:资源管理组

注册时间
2017-10-20
最后登录
2019-12-10
听众
1
收听
0
主题
88361
蓝光币
69834 枚
贡献
12723 点
发表于 2019-11-30 14:52:00 | 显示全部楼层 |阅读模式
舞女大盗 Hustlers.2019.720p.BluRay.x264-AAA 4.37GB-1.png
. \% V/ O  A/ M- i
' G& T2 h$ M' o9 b5 l3 b6 x译  名 舞女大盗 / The Hustlers at Scores / 拉客 / 皮条客 / 舞娘骗很大(台)
6 z; o- u: R) }( O4 f, h片  名 Hustlers
, U7 `! c0 F- Z) X. L年  代 2019
; |. {' f0 a7 r/ J% e7 H' Y) ?& Q产  地 美国* x5 s/ p( s+ Z* i2 E1 B
类  别 剧情 / 笑剧 / 犯罪
' A* k% U& h$ h( w8 ]" J7 J% O% P语  言 英语. q0 m+ D& G! b
上映日期 2019-09-07(多伦多电影节) / 2019-09-13(美国)  y3 p0 b4 p- x& ~. a& n
IMDb评分  6.6/10 from 19637 users! S& V0 t9 a3 C7 j2 h. |
IMDb链接  https://www.imdb.com/title/tt55036867 w( M( k$ ?# q& i! B' d/ K  I* M
豆瓣评分 6.8/10 from 1225 users/ J8 A+ ?' E6 |+ \6 u" ]" h
豆瓣链接 https://movie.douban.com/subject/30294313/
# c4 o' {' g) ^# P0 U4 Y* q1 X' R$ r. F片  长 107分钟
  A: l$ F7 R# p3 Y; q导  演 劳伦·斯卡法莉娅 Lorene Scafaria# @3 W$ V  F0 N9 q& c( d9 t1 {
编  剧 劳伦·斯卡法莉娅 Lorene Scafaria
1 r7 n% s! Z4 Q) |7 [6 K) \# U- d" `9 i主  演 吴恬敏 Constance Wu
. e" \+ j8 p! p" Z- m5 F% x% e       詹妮弗·洛佩兹 Jennifer Lopez
2 R5 w; J. D% a& z4 k       朱丽娅·斯蒂尔斯 Julia Stiles
4 ~4 n8 j+ s0 @1 i/ [       柯柯·帕尔莫 Keke Palmer
5 O( a1 o/ c1 y. g# J0 s7 J       丽丽·莱因哈特 Lili Reinhart
3 A$ d& N1 F- L  B% Z" U       莉佐 Lizzo% N7 x9 D; Q& u. ?( T
       卡迪·B Cardi B) X; s- |" O4 T+ q9 W$ m
       玛德琳·布鲁尔 Madeline Brewer) G& {' k8 q& s& N1 c# A/ m5 z
       弗兰克·威利 Frank Whaley2 Y: U- I8 p  Q; R, B1 Z8 m
       艾玛·巴蒂兹 Emma Batiz& ^' [$ S% w4 H, h9 X, v9 Z
       梅特·托利 Mette Towley. }6 G5 m! Y9 C% t
       何伟清 Wai Ching Ho! x$ S1 k) S" Q
       瓦妮莎·阿斯皮利亚加 Vanessa Aspillaga% L% O! h# @$ k0 ^% d$ z. @
       梅塞迪丝·鲁尔 Mercedes Ruehl* M$ O' x+ F! C& K
       布兰即位纳 Brandon Keener
2 Y3 G' [8 x2 T) U' j9 k       戴文·雷特瑞 Devin Ratray! k  N* Y/ S- |4 A5 k) R" Z
       亚瑟·雷蒙德 Usher Raymond
7 c( A, Y% J! H  |3 d1 y- Q: O, E4 J       亚历克斯·布鲁 Alex Breaux
4 `% D: E1 w! U; k' L       乔·格拉瑟 Jon Glaser. p# G' b1 C5 e( r4 Y
       瑞斯·考罗 Rhys Coiro
' z$ k. l4 e( p       艾德·赫伯斯特曼 Ed Herbstman: m! T  d0 O. d8 b' y0 N% A! W0 Z* D
       乔治娅·希梅内斯·里弗谢 Georgia Ximenes Lifsher* I3 [- \4 B3 {& O& ~  N
       斯图米·玛雅 Stormi Maya
& F: Q: y7 q( p; f       史蒂文·博耶 Steven Boyer' Q2 p$ h  z$ ~; S  J  p
       约翰·帕拉迪诺 John Palladino
6 v5 t! S3 d0 m       扎克里·伯德 Zachery Byrd# P3 y/ G# Z4 h$ Z7 C
       汤米·布里德摩尔 Tommy Beardmore
9 k3 w  G- t, S       列尼斯·德洛桑托斯 Leonys Delossantos6 w: d' c$ i" E) E
       纳迪娅·凯 Nadia Kay
" p  ~4 U  H. Q, J* y       桃乐丝·麦卡锡 Doris McCarthy
* e9 E: h$ z$ d$ y+ f' q2 P; @! e" K' R. L9 Y
8 C* I8 m, x7 Z5 K7 @- z
标  签 美国 | 女性 | 2019 | 犯罪 | 剧情 | 笑剧 | 实在事务改编 | 欺骗
& D; D- ~6 ~2 E. X6 A' V( o
( k8 ?' `7 }4 z! k% W简  介  / A! A9 C0 C9 V7 p
; n% z7 K5 C% i. q5 g' V+ n
  STX接手建造由詹妮弗·洛佩兹主演的[拉客],此前该片由Annapurna打造。与此同时吴恬敏也公布加盟影片,本片故事改编自《纽约客》同名文章,报告在金融危机以后,依靠华尔街客户的脱衣舞舞者的生存故事。洛佩兹将饰演一位大志勃勃的舞者大佬,率领她们计划更久远的未来。该片也是Annapurna本日第二部遭受建造变化的影片。1 Y6 s4 H; J/ O$ l5 c' g
  i3 \5 T" D' D4 x8 n2 t% W
获奖情况  . E4 o( L9 i& o; z# v

3 A3 D3 n0 |5 m; B) R' W9 l  第7届美国化装及发型设想工会奖(2020)
" I3 f. M" l  h5 I" U0 U) |  D  电影类最好现代戏化装(提名)
0 |2 l3 [, H( _* J, v9 }1 K. W$ d  电影类最好现代戏发型设想(提名)! c  b" |) Y- |; `$ G

- Z+ [( ]) \: k+ I7 G6 t7 A* j$ Y  第29届哥谭自力电影奖(2019)+ u/ a. E6 Z2 ?4 o+ f  n  e. z/ w
  最好影片(提名)% u6 ~' [- N* X9 K3 p/ I! X$ s8 M: ^
  1. Video" u2 a# o8 t' W: I' n3 ?; P
  2. ID                                       : 16 b+ c2 S& ?7 ?4 C' |
  3. Format                                   : AVC: s, Q! k- \8 S+ X3 u+ ?
  4. Format/Info                              : Advanced Video Codec
    $ |/ R. p$ r. J3 ~, u0 G& R! f- X
  5. Format profile                           : High@L4
    4 b+ t. d( ~" }1 k# j1 O
  6. Format settings                          : CABAC / 5 Ref Frames6 }: p1 d  y. Z# Q9 a8 n8 H. N
  7. Format settings, CABAC                   : Yes
    0 t7 p( _2 k& O' }! K5 U
  8. Format settings, Reference frames        : 5 frames/ ?; ~4 M  }7 f
  9. Codec ID                                 : V_MPEG4/ISO/AVC# _/ a) `+ Q1 k% R
  10. Duration                                 : 1 h 50 min
    3 A8 b5 s' _( r1 D
  11. Bit rate                                 : 5 038 kb/s
    7 j- G$ n$ C, r
  12. Width                                    : 1 280 pixels5 F6 x/ F# P0 N, |. }
  13. Height                                   : 536 pixels
    8 \" p. S5 L( v- w; A2 N
  14. Display aspect ratio                     : 2.40:1
    ! S3 G2 M& h( d5 ^
  15. Frame rate mode                          : Constant
    0 p" R" ~, V- c1 R8 l) u
  16. Frame rate                               : 23.976 (24000/1001) FPS
    9 K; f2 t" s4 W! ~5 B* q) z
  17. Color space                              : YUV
    + ^" K0 e6 ?6 x2 r
  18. Chroma subsampling                       : 4:2:0
    : |& t! B, M5 P
  19. Bit depth                                : 8 bits1 Y# B% N7 z7 E/ P, Q. i' ^
  20. Scan type                                : Progressive
    / \* Y# C% r4 z; e, I' I
  21. Bits/(Pixel*Frame)                       : 0.306$ X: E3 G+ u* I* q6 r
  22. Stream size                              : 3.87 GiB (89%)( u8 Y6 p* y( s& X/ i
  23. Title                                    : Hustlers.2019.720p.BluRay.x264-AAA3 v1 Q" A0 S, @; _. S5 B
  24. Writing library                          : x264 core 157 r2969 d4099dd
    + F$ ]% a: s5 @" h! ]( h& q. x
  25. Encoding settings                        : cabac=1 / ref=5 / deblock=1:0:0 / analyse=0x3:0x113 / me=umh / subme=8 / psy=1 / psy_rd=1.00:0.00 / mixed_ref=1 / me_range=16 / chroma_me=1 / trellis=1 / 8x8dct=1 / cqm=0 / deadzone=21,11 / fast_pskip=1 / chroma_qp_offset=-2 / threads=16 / lookahead_threads=2 / sliced_threads=0 / nr=0 / decimate=1 / interlaced=0 / bluray_compat=0 / constrained_intra=0 / bframes=3 / b_pyramid=2 / b_adapt=2 / b_bias=0 / direct=3 / weightb=1 / open_gop=0 / weightp=2 / keyint=240 / keyint_min=23 / scenecut=40 / intra_refresh=0 / rc_lookahead=50 / rc=2pass / mbtree=1 / bitrate=5038 / ratetol=1.0 / qcomp=0.60 / qpmin=0 / qpmax=69 / qpstep=4 / cplxblur=20.0 / qblur=0.5 / ip_ratio=1.40 / aq=1:1.00
    : ]4 j+ U" Z$ h8 [2 b' n6 F3 }8 D
  26. Language                                 : English4 P$ f% R# a2 a, s3 P
  27. Default                                  : Yes
    ' T" a9 a7 H& y9 |" B* l' R  W
  28. Forced                                   : No6 f. v( `+ {8 c" Q, S& ]2 @

  29. 0 i8 F- N2 Y/ |" @7 t
  30. Audio3 ?# u- g/ o4 z6 H  i3 J8 F
  31. ID                                       : 2" d' b# C4 U0 o5 W
  32. Format                                   : AC-3
    - \4 _1 d1 ~+ E% \3 ]" d, O3 C2 p
  33. Format/Info                              : Audio Coding 32 J  N0 [) B0 k2 X
  34. Commercial name                          : Dolby Digital
    7 m: m2 M9 \8 O5 w
  35. Codec ID                                 : A_AC3
    ) [8 j$ a- J; n6 Z/ O7 ^
  36. Duration                                 : 1 h 50 min+ h3 n4 ?4 I* F: s
  37. Bit rate mode                            : Constant
    % Z" o$ M/ t& Z  a" m" `
  38. Bit rate                                 : 640 kb/s3 j0 Z$ f9 m2 h% v# W
  39. Channel(s)                               : 6 channels
    " h; t; ^) s8 W* d" T, a
  40. Channel layout                           : L R C LFE Ls Rs
    8 R5 m9 u8 r  B, L" x# |) J
  41. Sampling rate                            : 48.0 kHz
      f5 ?" K3 C' @
  42. Frame rate                               : 31.250 FPS (1536 SPF)' M, Y) n1 y& V: N
  43. Bit depth                                : 16 bits
    + F4 K0 W2 K+ f2 S  _6 t: W% l0 {
  44. Compression mode                         : Lossy
    $ t0 ~3 V: F' w6 _$ T) o
  45. Stream size                              : 504 MiB (11%)0 ~4 i0 p1 C8 k" k
  46. Title                                    : English
    $ ]5 l- @& g3 y6 b5 w; c9 D
  47. Language                                 : English, F) ~8 A2 E3 q. P% w
  48. Service kind                             : Complete Main
    . n+ Z% ?' r2 z5 ?- c
  49. Default                                  : Yes
    : c, k5 A& C" Y3 [9 v) y, u
  50. Forced                                   : No3 y  r7 T+ x4 n
  51. 0 o- P& p, g) D4 X* K2 l. L+ C  v  f
  52. Menu
    ( S7 z% G+ X; z# s6 i3 x
  53. 00:00:00.000                             : en:00:00:00.000! a2 Z' K# M& q" X  H5 H8 O; u- z
  54. 00:05:09.017                             : en:00:05:09.017
    ! g$ X: j$ }( k. K
  55. 00:11:19.345                             : en:00:11:19.345
    3 `) \6 }/ s' t' n2 ]/ H: {
  56. 00:15:04.821                             : en:00:15:04.821
    ' \- y! ^+ x0 s1 W4 l
  57. 00:21:22.823                             : en:00:21:22.823
    * Y7 Q6 D8 }6 f* n
  58. 00:24:47.736                             : en:00:24:47.736
    # p- J2 P" ]/ a0 d1 V- a) U, `) ^
  59. 00:30:46.178                             : en:00:30:46.1787 w, _0 _& S+ D9 O+ [+ h' P
  60. 00:35:16.698                             : en:00:35:16.698
    * |/ ]" t# ^) U' H! Y
  61. 00:40:44.067                             : en:00:40:44.067
    6 P) t1 R, t6 }. C  F" k( N
  62. 00:45:31.979                             : en:00:45:31.979  M% n9 _2 G% b8 v
  63. 00:52:58.550                             : en:00:52:58.550
    ) k9 D5 F: [0 D# X+ w9 j, @$ }
  64. 01:00:36.758                             : en:01:00:36.758; i' p6 \+ v. ~& ]! U8 e: i8 a
  65. 01:04:27.030                             : en:01:04:27.030
    4 @; t; x0 Z  {
  66. 01:10:08.287                             : en:01:10:08.287
    ! l, I0 h/ P" u
  67. 01:15:02.581                             : en:01:15:02.581
    : U  F$ d* Y% u0 s4 w. _
  68. 01:20:53.724                             : en:01:20:53.724- b3 K4 b6 W) ~' J
  69. 01:27:47.762                             : en:01:27:47.7626 K! J, }% W( I5 ^- D7 c! D/ E; k) }
  70. 01:32:23.329                             : en:01:32:23.329
    . V: {$ F  f4 X
  71. 01:37:27.091                             : en:01:37:27.091+ A9 _$ ?6 O0 a
  72. 01:42:29.977                             : en:01:42:29.977
复制代码

1 K5 |8 o6 s/ v7 i3 k6 i( g% o 舞女大盗 Hustlers.2019.720p.BluRay.x264-AAA 4.37GB-2.png * n9 p4 x  U$ i# Q3 H8 S3 l

" |  |' T3 [: B& J$ o& P9 q
. S# R7 M) `& @" X# m$ B( l' E* p. \& {$ c, o

; D# `' B' [0 K' E7 X" I; e3 a8 n7 n
3 b1 ~# u7 W( h5 l
4 t8 Z* Z: i; e$ x
VIP会员免费任意下载本站所有资源!---点击开通
回复

使用道具 举报

级别:普通观众 Lv.2

注册时间
2019-11-22
最后登录
2019-12-7
听众
1
收听
0
主题
0
蓝光币
5 枚
贡献
0 点
发表于 2019-11-30 17:31:13 | 显示全部楼层
谢谢楼主分享
VIP会员免费任意下载本站所有资源!---点击开通
回复

使用道具 举报

级别:群众演员 Lv.3

注册时间
2019-10-27
最后登录
2019-12-10
听众
1
收听
0
主题
0
蓝光币
74 枚
贡献
0 点
发表于 2019-11-30 22:06:41 | 显示全部楼层
楼主发贴辛苦了,谢谢楼主分享!我觉得中国高清电影网是注册对了!
VIP会员免费任意下载本站所有资源!---点击开通
回复

使用道具 举报

级别:普通观众 Lv.2

注册时间
2019-3-31
最后登录
2019-12-7
听众
8
收听
0
主题
0
蓝光币
25 枚
贡献
0 点
发表于 2019-11-30 23:40:01 | 显示全部楼层
吴,华人?韩国?
VIP会员免费任意下载本站所有资源!---点击开通
回复

使用道具 举报

级别:荣升主角 Lv.5

注册时间
2018-2-26
最后登录
2019-12-10
听众
16
收听
0
主题
0
蓝光币
266 枚
贡献
0 点
发表于 2019-12-2 11:33:20 | 显示全部楼层
9 `3 Q, y1 o/ |3 s9 ]5 _% B2 x% ?. {7 }
既然你诚信诚意的推荐了,那我就勉为其难的看看吧!中国高清电影网不走平凡路。
VIP会员免费任意下载本站所有资源!---点击开通
回复

使用道具 举报

级别:普通观众 Lv.2

注册时间
2019-11-29
最后登录
2019-12-9
听众
1
收听
0
主题
0
蓝光币
7 枚
贡献
0 点
发表于 2019-12-2 19:47:58 | 显示全部楼层
楼主发贴辛苦了,谢谢楼主分享!我觉得中国高清电影网是注册对了!
VIP会员免费任意下载本站所有资源!---点击开通
回复

使用道具 举报

级别:一线明星 Lv.8

注册时间
2019-4-24
最后登录
2019-12-10
听众
14
收听
0
主题
0
蓝光币
214 枚
贡献
0 点
发表于 7 天前 | 显示全部楼层
楼主发贴辛苦了,谢谢楼主分享!我觉得中国高清电影网是注册对了!
VIP会员免费任意下载本站所有资源!---点击开通
回复

使用道具 举报

级别:初级观众 Lv.1

注册时间
2019-12-2
最后登录
2019-12-9
听众
1
收听
0
主题
0
蓝光币
12 枚
贡献
0 点
发表于 4 天前 | 显示全部楼层
谢谢楼主分享
VIP会员免费任意下载本站所有资源!---点击开通
回复

使用道具 举报

懒得打字嘛,点击右侧快捷回复 【右侧内容,后台自定义】
您需要登录后才可以回帖 登录 | 立即注册

本版积分规则

QQ|Archiver|手机版|小黑屋| 中国高清网 |网站地图

GMT+8, 2019-12-10 16:43 , Processed in 0.273776 second(s), 37 queries .

Powered by HDchina X3.4

Copyright 2017-2019©HDchina.All right reserved

返回顶部 联系我们