查看: 256|回复: 4

[8bit.SDR] 天使陷落/奥林匹斯的陷落3 Angel.Has.Fallen.2019.2160p.BluRay.x264.8bit.SDR.DTS-HD.MA.TrueHD.7.1.Atmos-SWTYBLZ 47.76GB

[复制链接]

 成长值: 3410

级别:资源管理组

注册时间
2017-10-20
最后登录
2019-12-10
听众
1
收听
0
主题
88361
蓝光币
69838 枚
贡献
12723 点
发表于 2019-11-18 16:56:05 | 显示全部楼层 |阅读模式
天使沦陷/奥林匹斯的沦陷3 Angel.Has.Fallen.2019.2160p.BluRay.x264.8bit.SDR.DTS-HD.MA.TrueHD.7.1.Atmos-SWTYBLZ 47.76GB-1.png

译  名 天使沦陷 / 奥林匹斯的沦陷3 / 白宫沦亡3﹕天使沦亡(港) / 空军一号沦陷
片  名 Angel Has Fallen
年  代 2019
产  地 美国
类  别 行动 / 犯罪
语  言 英语
上映日期 2019-08-23(美国)
IMDb评分  6.7/10 from 18202 users
IMDb链接  https://www.imdb.com/title/tt6189022
豆瓣评分 6.7/10 from 984 users
豆瓣链接 https://movie.douban.com/subject/26900949/
片  长 121分钟
导  演 里克·罗曼·沃夫 Ric Roman Waugh
编  剧 凯特琳·贝内迪克特 Katrin Benedikt / 罗伯特·马克·卡门 Robert Mark Kamen / 克赖顿·罗森博格 Creighton Rothenberger
主  演 杰拉德·巴特勒 Gerard Butler
       摩根·弗里曼 Morgan Freeman
       派珀·佩拉博 Piper Perabo
       兰斯·莱迪克 Lance Reddick
       贾达·萍克·史姑娘 Jada Pinkett Smith
       蒂姆·布雷克·尼尔森 Tim Blake Nelson
       尼克·诺特 Nick Nolte
       克里斯·勃朗宁 Chris Browning
       丹尼·赫斯顿 Danny Huston
       迈克尔·兰德斯 Michael Landes
       约瑟夫·米尔森 Joseph Millson
       索菲娅·德尔·皮佐 Sophia Del Pizzo
       马克·阿诺德 Mark Arnold
       萨皮尔·阿苏拉 Sapir Azulay
       费雷德里克·施密特 Frederick Schmidt
       马克·史姑娘 Mark Rhino Smith
       布伦丹·凯利 Brendan Kelly
       凯瑞·莎勒 Kerry Shale
       奥利·普费弗 Ori Pfeffer
       布莱恩·拉金 Bryan Larkin
       科林·斯廷顿 Colin Stinton
       阿塔纳斯·斯雷布雷夫 Atanas Srebrev
       贾格·帕特尔 Jag Patel
       乔蕾·科斯 Joelle Koissi
       黛博拉·洛克 Deborah Rock
       丹尼尔·厄根 Daniel Eghan
       伯纳多·桑托斯 Bernardo Santos
       内森·库珀 Nathan Cooper
       泰·赫尔利 Ty Hurley
       保罗·布莱克维尔 Paul Blackwell
       米迦勒·博迪 Michael Bodie
       劳拉·马塔沙 Laura Matassa
       凯文·马塔迪恩 Kevin Matadeen
       格雷格·奥维斯 Greg Orvis
       马丁·贝尔曼 Martin Behrman
       乔治娅·古德曼 Georgia Goodman


标  签 行动 | 美国 | 沦陷 | 2019 | 反恐 | 犯罪 | 战争 | 奸细

简  介  

  美国总统(摩根·弗里曼饰)在遭受无人机可骇攻击后身受重伤堕入昏迷,随行职员在屡次爆炸中三军淹没,唯一的幸存者——总统多年贴身保镳迈克·班宁(杰拉德·巴特勒饰)却成最大怀疑犯,被FBI控诉诡计暗杀总统。班宁必须给自己洗刷委屈,同时阻止实在的刺杀总统计划,在多方势力围追切断下,穷途末路的他只能追求一位奥秘人的庇护……已经的豪杰保镳现在变成通缉犯,班宁将若何离开险境、庇护总统,破解背后的诡计?
  1. Video
  2. ID                                       : 1
  3. Format                                   : AVC
  4. Format/Info                              : Advanced Video Codec
  5. Format profile                           : High@L4
  6. Format settings                          : CABAC / 5 Ref Frames
  7. Format settings, CABAC                   : Yes
  8. Format settings, Reference frames        : 5 frames
  9. Codec ID                                 : V_MPEG4/ISO/AVC
  10. Duration                                 : 2 h 1 min
  11. Bit rate                                 : 48.9 Mb/s
  12. Width                                    : 3 840 pixels
  13. Height                                   : 1 606 pixels
  14. Display aspect ratio                     : 2.40:1
  15. Frame rate mode                          : Constant
  16. Frame rate                               : 23.976 (24000/1001) FPS
  17. Color space                              : YUV
  18. Chroma subsampling                       : 4:2:0
  19. Bit depth                                : 8 bits
  20. Scan type                                : Progressive
  21. Bits/(Pixel*Frame)                       : 0.331
  22. Stream size                              : 41.4 GiB (87%)
  23. Title                                    : Angel.Has.Fallen.2019.2160p.BluRay.x264.8bit.SDR.DTS-HD.MA.TrueHD.7.1.Atmos-SWTYBLZ
  24. Writing library                          : x264 core 157 r2935 545de2f
  25. Encoding settings                        : cabac=1 / ref=5 / deblock=1:-1:-1 / analyse=0x3:0x113 / me=umh / subme=10 / psy=1 / psy_rd=1.00:0.15 / mixed_ref=1 / me_range=48 / chroma_me=1 / trellis=2 / 8x8dct=1 / cqm=0 / deadzone=21,11 / fast_pskip=1 / chroma_qp_offset=-3 / threads=48 / lookahead_threads=4 / sliced_threads=0 / nr=0 / decimate=0 / interlaced=0 / bluray_compat=0 / constrained_intra=0 / bframes=3 / b_pyramid=2 / b_adapt=2 / b_bias=0 / direct=3 / weightb=1 / open_gop=0 / weightp=2 / keyint=250 / keyint_min=23 / scenecut=40 / intra_refresh=0 / rc_lookahead=50 / rc=crf / mbtree=1 / crf=18.0 / qcomp=0.60 / qpmin=0 / qpmax=69 / qpstep=4 / ip_ratio=1.40 / aq=1:1.00
  26. Default                                  : Yes
  27. Forced                                   : No

  28. Audio #1
  29. ID                                       : 2
  30. Format                                   : MLP FBA 16-ch
  31. Format/Info                              : Meridian Lossless Packing FBA with 16-channel presentation
  32. Commercial name                          : Dolby TrueHD with Dolby Atmos
  33. Codec ID                                 : A_TRUEHD
  34. Duration                                 : 2 h 1 min
  35. Bit rate mode                            : Variable
  36. Bit rate                                 : 3 046 kb/s
  37. Maximum bit rate                         : 5 010 kb/s
  38. Channel(s)                               : 8 channels
  39. Channel layout                           : L R C LFE Ls Rs Lb Rb
  40. Sampling rate                            : 48.0 kHz
  41. Frame rate                               : 1 200.000 FPS (40 SPF)
  42. Compression mode                         : Lossless
  43. Stream size                              : 2.58 GiB (5%)
  44. Title                                    : Angel.Has.Fallen.2019.2160p.BluRay.x264.8bit.SDR.DTS-HD.MA.TrueHD.7.1.Atmos-SWTYBLZ
  45. Language                                 : English
  46. Default                                  : Yes
  47. Forced                                   : No
  48. Number of dynamic objects                : 11
  49. Bed channel count                        : 1 channel
  50. Bed channel configuration                : LFE

  51. Audio #2
  52. ID                                       : 3
  53. Format                                   : DTS XLL
  54. Format/Info                              : Digital Theater Systems
  55. Commercial name                          : DTS-HD Master Audio
  56. Codec ID                                 : A_DTS
  57. Duration                                 : 2 h 1 min
  58. Bit rate mode                            : Variable
  59. Bit rate                                 : 3 653 kb/s
  60. Channel(s)                               : 8 channels
  61. Channel layout                           : C L R LFE Lb Rb Lss Rss
  62. Sampling rate                            : 48.0 kHz
  63. Frame rate                               : 93.750 FPS (512 SPF)
  64. Bit depth                                : 24 bits
  65. Compression mode                         : Lossless
  66. Stream size                              : 3.09 GiB (7%)
  67. Title                                    : Angel.Has.Fallen.2019.2160p.BluRay.x264.8bit.SDR.DTS-HD.MA.TrueHD.7.1.Atmos-SWTYBLZ
  68. Language                                 : English
  69. Default                                  : No
  70. Forced                                   : No

  71. Audio #3
  72. ID                                       : 4
  73. Format                                   : AC-3
  74. Format/Info                              : Audio Coding 3
  75. Commercial name                          : Dolby Digital
  76. Codec ID                                 : A_AC3
  77. Duration                                 : 2 h 1 min
  78. Bit rate mode                            : Constant
  79. Bit rate                                 : 448 kb/s
  80. Channel(s)                               : 6 channels
  81. Channel layout                           : L R C LFE Ls Rs
  82. Sampling rate                            : 48.0 kHz
  83. Frame rate                               : 31.250 FPS (1536 SPF)
  84. Bit depth                                : 16 bits
  85. Compression mode                         : Lossy
  86. Stream size                              : 388 MiB (1%)
  87. Title                                    : Angel.Has.Fallen.2019.2160p.BluRay.x264.8bit.SDR.DTS-HD.MA.TrueHD.7.1.Atmos-SWTYBLZ
  88. Language                                 : English
  89. Service kind                             : Complete Main
  90. Default                                  : No
  91. Forced                                   : No

  92. Text #1
  93. ID                                       : 5
  94. Format                                   : UTF-8
  95. Codec ID                                 : S_TEXT/UTF8
  96. Codec ID/Info                            : UTF-8 Plain Text
  97. Duration                                 : 1 h 51 min
  98. Bit rate                                 : 58 b/s
  99. Count of elements                        : 1452
  100. Stream size                              : 47.5 KiB (0%)
  101. Title                                    : English-SRT
  102. Language                                 : English
  103. Default                                  : Yes
  104. Forced                                   : No

  105. Text #2
  106. ID                                       : 6
  107. Format                                   : PGS
  108. Muxing mode                              : zlib
  109. Codec ID                                 : S_HDMV/PGS
  110. Codec ID/Info                            : Picture based subtitle format used on BDs/HD-DVDs
  111. Duration                                 : 1 h 52 min
  112. Bit rate                                 : 44.7 kb/s
  113. Count of elements                        : 3092
  114. Stream size                              : 36.1 MiB (0%)
  115. Title                                    : English-PGS
  116. Language                                 : English
  117. Default                                  : No
  118. Forced                                   : No

  119. Text #3
  120. ID                                       : 7
  121. Format                                   : PGS
  122. Muxing mode                              : zlib
  123. Codec ID                                 : S_HDMV/PGS
  124. Codec ID/Info                            : Picture based subtitle format used on BDs/HD-DVDs
  125. Duration                                 : 1 h 50 min
  126. Bit rate                                 : 47.4 kb/s
  127. Count of elements                        : 3064
  128. Stream size                              : 37.7 MiB (0%)
  129. Title                                    : French-PGS
  130. Language                                 : French
  131. Default                                  : No
  132. Forced                                   : No

  133. Text #4
  134. ID                                       : 8
  135. Format                                   : PGS
  136. Muxing mode                              : zlib
  137. Codec ID                                 : S_HDMV/PGS
  138. Codec ID/Info                            : Picture based subtitle format used on BDs/HD-DVDs
  139. Duration                                 : 1 h 51 min
  140. Bit rate                                 : 34.1 kb/s
  141. Count of elements                        : 2716
  142. Stream size                              : 27.2 MiB (0%)
  143. Title                                    : Spanish-PGS
  144. Language                                 : Spanish
  145. Default                                  : No
  146. Forced                                   : No

  147. Menu
  148. 00:00:00.000                             : en:Chapter 01
  149. 00:06:48.950                             : en:Chapter 02
  150. 00:15:08.157                             : en:Chapter 03
  151. 00:23:13.809                             : en:Chapter 04
  152. 00:28:35.714                             : en:Chapter 05
  153. 00:39:39.627                             : en:Chapter 06
  154. 00:45:33.564                             : en:Chapter 07
  155. 00:50:56.053                             : en:Chapter 08
  156. 00:59:23.393                             : en:Chapter 09
  157. 01:06:50.882                             : en:Chapter 10
  158. 01:16:25.873                             : en:Chapter 11
  159. 01:24:11.046                             : en:Chapter 12
  160. 01:30:14.409                             : en:Chapter 13
  161. 01:37:42.065                             : en:Chapter 14
  162. 01:44:54.538                             : en:Chapter 15
  163. 01:51:08.120                             : en:Chapter 16
复制代码

165415ddnx4tczbcdzmncc.png 天使沦陷/奥林匹斯的沦陷3 Angel.Has.Fallen.2019.2160p.BluRay.x264.8bit.SDR.DTS-HD.MA.TrueHD.7.1.Atmos-SWTYBLZ 47.76GB-3.png 天使沦陷/奥林匹斯的沦陷3 Angel.Has.Fallen.2019.2160p.BluRay.x264.8bit.SDR.DTS-HD.MA.TrueHD.7.1.Atmos-SWTYBLZ 47.76GB-4.png 天使沦陷/奥林匹斯的沦陷3 Angel.Has.Fallen.2019.2160p.BluRay.x264.8bit.SDR.DTS-HD.MA.TrueHD.7.1.Atmos-SWTYBLZ 47.76GB-5.png 天使沦陷/奥林匹斯的沦陷3 Angel.Has.Fallen.2019.2160p.BluRay.x264.8bit.SDR.DTS-HD.MA.TrueHD.7.1.Atmos-SWTYBLZ 47.76GB-6.png 天使沦陷/奥林匹斯的沦陷3 Angel.Has.Fallen.2019.2160p.BluRay.x264.8bit.SDR.DTS-HD.MA.TrueHD.7.1.Atmos-SWTYBLZ 47.76GB-7.png 天使沦陷/奥林匹斯的沦陷3 Angel.Has.Fallen.2019.2160p.BluRay.x264.8bit.SDR.DTS-HD.MA.TrueHD.7.1.Atmos-SWTYBLZ 47.76GB-8.png







本帖隐藏的下载地址需要VIP会员才可阅读,您需要升级才可阅读,点击这里升级VIP
VIP会员免费任意下载本站所有资源!---点击开通
回复

使用道具 举报

级别:初级观众 Lv.1

注册时间
2019-11-20
最后登录
2019-11-26
听众
0
收听
0
主题
0
蓝光币
13 枚
贡献
0 点
发表于 2019-11-24 19:52:08 | 显示全部楼层
楼主发贴辛苦了,谢谢楼主分享!我觉得中国高清电影网是注册对了!
VIP会员免费任意下载本站所有资源!---点击开通
回复

使用道具 举报

级别:初级观众 Lv.1

注册时间
2019-12-1
最后登录
2019-12-1
听众
0
收听
0
主题
0
蓝光币
4 枚
贡献
0 点
发表于 2019-12-1 17:02:32 | 显示全部楼层
楼主发贴辛苦了,谢谢楼主分享!我觉得中国高清电影网是注册对了!
VIP会员免费任意下载本站所有资源!---点击开通
回复

使用道具 举报

级别:普通观众 Lv.2

注册时间
2019-12-2
最后登录
2019-12-10
听众
1
收听
0
主题
0
蓝光币
18 枚
贡献
0 点
发表于 2019-12-2 22:57:19 | 显示全部楼层
楼主发贴辛苦了,谢谢楼主分享!我觉得中国高清电影网是注册对了!
VIP会员免费任意下载本站所有资源!---点击开通
回复

使用道具 举报

级别:群众演员 Lv.3

注册时间
2018-10-13
最后登录
2019-12-3
听众
14
收听
0
主题
0
蓝光币
177 枚
贡献
0 点
QQ
发表于 7 天前 | 显示全部楼层
感谢楼主分享!收藏了!
VIP会员免费任意下载本站所有资源!---点击开通
回复

使用道具 举报

懒得打字嘛,点击右侧快捷回复 【右侧内容,后台自定义】
您需要登录后才可以回帖 登录 | 立即注册

本版积分规则

QQ|Archiver|手机版|小黑屋| 中国高清网 |网站地图

GMT+8, 2019-12-10 16:56 , Processed in 0.274866 second(s), 38 queries .

Powered by HDchina X3.4

Copyright 2017-2019©HDchina.All right reserved

返回顶部 联系我们