查看: 271|回复: 2

[剧情片] 上海皇帝之雄霸天下 Lord.of.East.China.Sea.II.1993.CHINESE.1080p.BluRay.x264.DD2.0-HDH 8.75GB

[复制链接]

 成长值: 4210

级别:资源管理组

注册时间
2017-10-20
最后登录
2020-2-28
听众
1
收听
0
主题
92951
蓝光币
105917 枚
贡献
17313 点
发表于 2019-11-18 13:12:47 | 显示全部楼层 |阅读模式
131143qw16zddgryr9o9yd.png

译  名 Lord of East China Sea II
片  名 上海天子之雄霸全国
年  代 1993
产  地 中国香港
类  别 剧情 / 悬疑 / 犯罪
语  言 粤语
上映日期 1993-05-13
IMDb评分  7.1/10 from 81 users
IMDb链接  https://www.imdb.com/title/tt0108105
豆瓣评分 7.8/10 from 7190 users
豆瓣链接 https://movie.douban.com/subject/1303170/
片  长 104 分钟
导  演 潘文杰 Man Kit Poon
编  剧 麦当雄 Johnny Mak / 萧若元 Stephen Siu
主  演 吕良伟 Ray Lui
       郑则仕 Kent Cheng
       徐锦江 Elvis Tsui
       刘嘉玲 Carina Lau
       叶童 Cecilia Yip


标  签 黑帮 | 香港 | 列传 | 香港电影 | 吕良伟 | 麦当雄 | 历史 | 1993

简  介  

  这部《雄霸全国》的故事紧接《光阴风云》展开。陆云生(吕良伟 饰)排场做大,他为人重情谊不计开销致使入不够出,遂计划涉足银行业,岂料上海各银里手个人顺从。陆请动古羽(苗侨伟 饰)辅佐,终令银里手们垂头服输……1937年,政府推行“新生活”活动,陆云生放弃雅片买卖带头戒毒,成果几乎丧命,未几卢沟桥事变爆发,陆云生为支持抗战捐赠战机,却仍没有挽回上海沦亡的终局,是役更致使他众多门生身亡。陆云生为躲避日本人暂居香港,时代黄金荣(郑则仕 饰)留沪装傻;袁肃军(徐锦江 饰)投靠日军成为汉奸,陆云生只得派出阿山(汤镇业 饰)刺袁。
  抗战终究成功,陆云生有望成为上海市长,让他颇感欣喜,但刻毒的现实是他已落空操纵代价,一代枭雄在不属于他的时代渐入穷途……
  1. Video
  2. ID                                       : 1
  3. Format                                   : AVC
  4. Format/Info                              : Advanced Video Codec
  5. Format profile                           : High@L4
  6. Format settings                          : CABAC / 5 Ref Frames
  7. Format settings, CABAC                   : Yes
  8. Format settings, Reference frames        : 5 frames
  9. Codec ID                                 : V_MPEG4/ISO/AVC
  10. Duration                                 : 1 h 43 min
  11. Bit rate                                 : 11.7 Mb/s
  12. Width                                    : 1 920 pixels
  13. Height                                   : 820 pixels
  14. Display aspect ratio                     : 2.35:1
  15. Frame rate mode                          : Constant
  16. Frame rate                               : 24.000 FPS
  17. Color space                              : YUV
  18. Chroma subsampling                       : 4:2:0
  19. Bit depth                                : 8 bits
  20. Scan type                                : Progressive
  21. Bits/(Pixel*Frame)                       : 0.310
  22. Stream size                              : 8.47 GiB (97%)
  23. Writing library                          : x264 core 142 r2431+42 c69a006 tMod [High@L4:2:0 X86_64]
  24. Encoding settings                        : cabac=1 / ref=5 / deblock=1:-3:-3 / analyse=0x3:0x113 / me=umh / subme=10 / psy=1 / fade_compensate=0.00 / psy_rd=1.00:0.05 / mixed_ref=1 / me_range=48 / chroma_me=1 / trellis=2 / 8x8dct=1 / cqm=0 / deadzone=21,11 / fast_pskip=0 / chroma_qp_offset=-2 / threads=48 / lookahead_threads=6 / sliced_threads=0 / nr=0 / decimate=1 / interlaced=0 / bluray_compat=0 / constrained_intra=0 / fgo=0 / bframes=8 / b_pyramid=2 / b_adapt=2 / b_bias=0 / direct=3 / weightb=1 / open_gop=0 / weightp=2 / keyint=250 / keyint_min=24 / scenecut=40 / intra_refresh=0 / rc_lookahead=40 / rc=crf / mbtree=0 / crf=20.8000 / qcomp=0.60 / qpmin=0:0:0 / qpmax=69:69:69 / qpstep=4 / vbv_maxrate=40000 / vbv_bufsize=30000 / crf_max=0.0 / nal_hrd=none / filler=0 / ip_ratio=1.40 / pb_ratio=1.30 / aq=3:0.80 / aq-sensitivity=10.00 / aq-factor=1.00:1.00:1.00 / aq2=0 / aq3=0
  25. Default                                  : Yes
  26. Forced                                   : No
  27. Color range                              : Limited
  28. Matrix coefficients                      : BT.709

  29. Audio
  30. ID                                       : 2
  31. Format                                   : AC-3
  32. Format/Info                              : Audio Coding 3
  33. Commercial name                          : Dolby Digital
  34. Codec ID                                 : A_AC3
  35. Duration                                 : 1 h 43 min
  36. Bit rate mode                            : Constant
  37. Bit rate                                 : 384 kb/s
  38. Channel(s)                               : 2 channels
  39. Channel layout                           : L R
  40. Sampling rate                            : 48.0 kHz
  41. Frame rate                               : 31.250 FPS (1536 SPF)
  42. Bit depth                                : 16 bits
  43. Compression mode                         : Lossy
  44. Stream size                              : 285 MiB (3%)
  45. Language                                 : Chinese
  46. Service kind                             : Complete Main
  47. Default                                  : Yes
  48. Forced                                   : No

  49. Text
  50. ID                                       : 3
  51. Format                                   : UTF-8
  52. Codec ID                                 : S_TEXT/UTF8
  53. Codec ID/Info                            : UTF-8 Plain Text
  54. Duration                                 : 1 h 41 min
  55. Bit rate                                 : 48 b/s
  56. Count of elements                        : 1306
  57. Stream size                              : 35.7 KiB (0%)
  58. Language                                 : English
  59. Default                                  : Yes
  60. Forced                                   : No

  61. Menu
  62. 00:00:00.000                             : en:00:00:00.000
  63. 00:09:57.583                             : en:00:09:57.583
  64. 00:18:10.583                             : en:00:18:10.583
  65. 00:25:51.750                             : en:00:25:51.750
  66. 00:32:40.333                             : en:00:32:40.333
  67. 00:42:43.750                             : en:00:42:43.750
  68. 00:52:10.625                             : en:00:52:10.625
  69. 01:01:59.792                             : en:01:01:59.792
  70. 01:11:32.792                             : en:01:11:32.792
  71. 01:18:29.000                             : en:01:18:29.000
  72. 01:27:01.083                             : en:01:27:01.083
  73. 01:35:15.208                             : en:01:35:15.208
复制代码

上海天子之雄霸全国 Lord.of.East.China.Sea.II.1993.CHINESE.1080p.BluRay.x264.DD2.0-HDH 8.75GB-2.png 上海天子之雄霸全国 Lord.of.East.China.Sea.II.1993.CHINESE.1080p.BluRay.x264.DD2.0-HDH 8.75GB-3.png 上海天子之雄霸全国 Lord.of.East.China.Sea.II.1993.CHINESE.1080p.BluRay.x264.DD2.0-HDH 8.75GB-4.png







回复

使用道具 举报

级别:普通观众 Lv.2

注册时间
2019-11-25
最后登录
2020-2-28
听众
1
收听
0
主题
0
蓝光币
40 枚
贡献
0 点
发表于 2019-12-6 00:53:29 | 显示全部楼层

楼主太厉害了!楼主,电影应该很好看我觉得中国高清电影网真是个好地方!
回复

使用道具 举报

级别:群众演员 Lv.3

注册时间
2020-2-4
最后登录
2020-2-28
听众
1
收听
0
主题
0
蓝光币
22 枚
贡献
0 点
发表于 2020-2-14 17:56:42 | 显示全部楼层

这个帖子不回对不起自己!我想我是一天也不能离开中国高清电影网
回复

使用道具 举报

懒得打字嘛,点击右侧快捷回复 【右侧内容,后台自定义】
您需要登录后才可以回帖 登录 | 立即注册

本版积分规则

Archiver|手机版|小黑屋| 中国高清网 |网站地图

GMT+8, 2020-2-28 22:02 , Processed in 0.188400 second(s), 37 queries .

Powered by HDchina X3.4

Copyright 2017-2019©HDchina.All right reserved

返回顶部 联系我们