查看: 311|回复: 5

[动画片] 超人之死与超人归来 The.Death.and.Return.of.Superman.2019.720p.BluRay.x264-GETiT 5.47GB

[复制链接]

 成长值: 5460

级别:资源管理组

注册时间
2017-10-20
最后登录
2020-5-28
听众
1
收听
0
主题
96220
蓝光币
151956 枚
贡献
20598 点
发表于 2019-11-11 09:40:39 | 显示全部楼层 |阅读模式
超人之死与超人归来 The.Death.and.Return.of.Superman.2019.720p.BluRay.x264-GETiT 5.47GB-1.png " J+ ]% V' Z1 w. H

! p% l7 G9 f) l& O译  名 超人之死与超人归来
5 f! ?) d( v$ I6 m5 |/ ~片  名 The Death and Return of Superman
# D" ]2 q, g; f年  代 2019
! u" _2 i" z% m  F- R产  地 美国
9 i' k! {3 S' W* ~) e类  别 动画. `0 A5 K6 t: x4 N# w% ?. I
语  言 英语5 j$ G  |* v# s5 S  y. G
上映日期 2019-10-01(美国)
8 p0 n* R- ?  o# K! s$ [& fIMDb链接  http://www.imdb.com/title/tt11043546
( u* V6 j/ M3 q' x3 W( A# B豆瓣评分 0/10 from 0 users; o7 m& v  ?# i4 _; q
豆瓣链接 https://movie.douban.com/subject/34845738/
" b$ Y- p% ]' t0 E. O片  长 166分钟( \5 F7 l8 F# U
导  演 杰克·卡斯托雷纳 Jake Castorena / 刘山姆 Sam Liu
2 O! L; B+ ^8 x4 I" I$ g$ c9 D4 |# F编  剧 比尔·芬格 Bill Finger" _- Z5 D! F( R3 ~) d3 f! {
主  演 杰瑞·奥康奈尔 Jerry O'Connell
. k$ L. |6 v! d$ M% |       丽贝卡·罗梅恩 Rebecca Romijn0 w  d! `7 Q2 @, f" R  f. F- j
       罗莎里奥·道森 Rosario Dawson$ G# l! ]% g& u* d" `8 l' c5 u9 D$ \
       耐姆比·耐姆比 Nyambi Nyambi
* B  n0 Z! O) n: Z) X* s       乔纳森·亚当斯 Jonathan Adams
4 K! D. O5 ~' c0 ]- i( z$ r0 B       洛奇·卡罗尔 Rocky Carroll: \" K+ P9 s8 e7 t) N
       特雷弗·德瓦 Trevor Devall
# }. d; r1 I- f. D1 U0 d       保罗·伊丁 Paul Eiding# @  C7 K' E/ s8 e8 q: ^
       詹妮弗·黑尔 Jennifer Hale! t6 M0 K% U& o; t0 N! \
       查尔斯·哈尔福德 Charles Halford2 h$ Y9 C* q: b5 R5 X4 R  B. q
       艾丽卡·鲁特雷尔 Erica Luttrell' M4 t) z4 d9 ~5 U  |9 v
       马克斯·迈特尔曼 Max Mittelman( l5 E. V' U* y  ?# M
       托克斯·奥拉贡多耶 Toks Olagundoye
  m0 c  ?0 f6 ^. k8 h! D( Y       里克·帕斯夸隆 Rick Pasqualone
: v: [3 a' E* N) l( }6 M       Amanda Troop
% m2 ?( v0 M  G' _; b2 _
, F* `% K( T+ E* }2 P' ?6 A' ?& j0 V, Z, }; W
简  介  & I3 Z- h, h% |) z' v* d$ u2 [

" E0 I. E$ @2 D) V/ k  The Death of Superman and Reign of the Supermen now presented as an over two-hour unabridged and seamless animated feature. Witness the no-holds-barred battle between the Justice League and an unstoppable alien force known only as Doomsday, a battle that only Superman can finish and will forever change the face of Metropolis.
) ]) D' F: l7 I4 t, m& _8 p  The Death and Return of Superman finds Superman in a fight to the finish when the Man of Steel becomes the only hero who can stand in the way of the monstrous creature Doomsday and his unstoppable rampage. Superman saves the planet, but not himself, leaving Earth’s citizens – and his heroic contemporaries – dealing with a world without Superman. The aftermath of Superman’s death, and the subsequent disappearance of his body, leads to a new mystery – is Superman still alive? The question is further complicated when four new super-powered individuals – Steel, Cyborg Superman, Superboy and the Eradicator – emerge to proclaim themselves as the ultimate hero. In the end, only one will be able to proclaim himself the world’s true Superman.' e1 K$ }$ d4 G  H
  1. Video
    5 p' |& t, D4 X8 m1 V
  2. ID                                       : 1) K+ K+ b" Y1 a$ o' r  V- l/ a
  3. Format                                   : AVC  Y7 R* A& a8 d' Z: s( e* E
  4. Format/Info                              : Advanced Video Codec
    7 X  {' {8 g1 }
  5. Format profile                           : High@L4
    2 u6 W' a' H. r
  6. Format settings                          : CABAC / 5 Ref Frames. s, b/ c4 u, g7 d
  7. Format settings, CABAC                   : Yes# F6 ]- S4 l* N7 C. a
  8. Format settings, Reference frames        : 5 frames# ^0 _& {  O5 [+ C" t; O9 C
  9. Codec ID                                 : V_MPEG4/ISO/AVC8 [3 z1 P* F8 ]1 C  w5 w+ l
  10. Duration                                 : 2 h 46 min
    ! y, v- e/ s% |) j
  11. Bit rate                                 : 3 191 kb/s1 [  y4 h; B+ A) h& k' @
  12. Width                                    : 1 280 pixels
    5 ~6 e: w7 m* v$ S. o) R" M9 A4 |" R6 u
  13. Height                                   : 720 pixels
    # V/ U) _* m: i, v
  14. Display aspect ratio                     : 16:9
    / S0 E6 r2 H7 x5 Z- j
  15. Frame rate mode                          : Constant
    / o/ J' z8 C7 m$ S$ l. P- I: X  n* Y
  16. Frame rate                               : 23.976 (24000/1001) FPS
    , y$ @& F% ]/ V6 y+ k5 O- b
  17. Color space                              : YUV& M' e, z) K' z6 @' \) [
  18. Chroma subsampling                       : 4:2:0
    ) ~: t# L8 T6 ?) g9 ^* i1 w
  19. Bit depth                                : 8 bits
    , y# g& F, m0 k+ x
  20. Scan type                                : Progressive- y* h2 p9 D3 C7 E9 n3 I
  21. Bits/(Pixel*Frame)                       : 0.1440 Y& L  {2 V& }6 |
  22. Stream size                              : 3.60 GiB (66%)" v8 S* r' a1 ~& u
  23. Writing library                          : x264 core 157 r2969 d4099dd
    # m, E& t! `% y6 s
  24. Encoding settings                        : cabac=1 / ref=5 / deblock=1:-2:-2 / analyse=0x3:0x113 / me=umh / subme=8 / psy=1 / psy_rd=1.00:0.00 / mixed_ref=1 / me_range=16 / chroma_me=1 / trellis=2 / 8x8dct=1 / cqm=0 / deadzone=21,11 / fast_pskip=1 / chroma_qp_offset=-2 / threads=22 / lookahead_threads=3 / sliced_threads=0 / nr=0 / decimate=1 / interlaced=0 / bluray_compat=0 / constrained_intra=0 / bframes=3 / b_pyramid=2 / b_adapt=2 / b_bias=0 / direct=3 / weightb=1 / open_gop=0 / weightp=2 / keyint=240 / keyint_min=24 / scenecut=40 / intra_refresh=0 / rc_lookahead=50 / rc=2pass / mbtree=1 / bitrate=3191 / ratetol=1.0 / qcomp=0.60 / qpmin=0 / qpmax=69 / qpstep=4 / cplxblur=20.0 / qblur=0.5 / ip_ratio=1.40 / aq=1:1.00- r8 e+ Q' {4 i0 C
  25. Language                                 : English
    & h. u6 g) i  \
  26. Default                                  : Yes
    2 |7 F! H- w6 e6 Z7 A; L
  27. Forced                                   : No
    9 R- s/ b$ z  u* L7 k6 a5 H
  28. 3 W/ M+ d3 Z' b9 e! l3 L5 O
  29. Audio* c4 k4 m+ s, y, G3 H& ~  ^& b' }. s) U
  30. ID                                       : 2
    4 h. I& O1 R% ?
  31. Format                                   : DTS* T  d) N8 ]! h* I# N$ t; B
  32. Format/Info                              : Digital Theater Systems- q/ I2 ]7 ~: \# S3 @) e" Q; R
  33. Codec ID                                 : A_DTS: y& f8 _( i, m
  34. Duration                                 : 2 h 46 min
    3 n0 I6 E+ f4 B& \1 m
  35. Bit rate mode                            : Constant
      c5 n: X* M( t7 [1 Z
  36. Bit rate                                 : 1 509 kb/s( q* G- F  r$ y- g4 t
  37. Channel(s)                               : 6 channels! |2 f0 l% ?$ r% Y4 f- S- _' m
  38. Channel layout                           : C L R Ls Rs LFE
    5 `$ f3 l! F7 L! J2 h5 N4 V3 Q- [- A
  39. Sampling rate                            : 48.0 kHz- \- M- `) D9 ?! _+ u
  40. Frame rate                               : 93.750 FPS (512 SPF)+ M+ B, `3 C% Q" n: p" T0 ~/ j- }
  41. Bit depth                                : 24 bits
    ; F" G3 K9 O. f* p# E! z
  42. Compression mode                         : Lossy
    - t# ?- G& N& H; P( D
  43. Stream size                              : 1.75 GiB (32%)3 |' o5 t6 D, j1 W+ ~2 Y
  44. Language                                 : English
    " `; ^+ d1 Q; q" D
  45. Default                                  : Yes; R4 }# g- x' m4 `  C
  46. Forced                                   : No
    ) W' t: w" C$ e6 b1 O7 B7 c
  47. 1 G* ]2 F* Y9 R) b( p7 b
  48. Menu
    : L5 p) |: a, y5 M  a1 g2 B1 ]
  49. 00:00:00.000                             : en:00:00:00.000
    4 h8 k" I# L2 o8 ^2 v+ j4 I
  50. 00:07:48.927                             : en:00:07:48.9272 S! g- i( n  z& M& v; @" G  s1 N2 w$ U
  51. 00:14:28.034                             : en:00:14:28.034$ f7 S: Z" c$ ?- e4 w2 {3 N
  52. 00:25:28.193                             : en:00:25:28.193
    + o: `9 G6 @, P1 R' ^2 N0 y
  53. 00:33:27.839                             : en:00:33:27.839
    2 o, X# k  `$ a# J  r: o0 e
  54. 00:43:19.847                             : en:00:43:19.847
    9 M+ A5 J9 ?8 o" c; k
  55. 00:50:19.767                             : en:00:50:19.767: p. g& E3 t; Q3 E, J
  56. 01:00:19.282                             : en:01:00:19.282
    ) Z8 V' v9 F2 G' K- ^# v
  57. 01:09:33.878                             : en:01:09:33.878+ c" K& w$ b% I' E* y, A
  58. 01:18:22.656                             : en:01:18:22.6560 \1 m" |/ y& `+ S3 X) ]9 T
  59. 01:26:38.693                             : en:01:26:38.693
    # E3 M. K8 y& B2 b' ]) e& B
  60. 01:32:43.266                             : en:01:32:43.266
    . U5 S' q1 W5 _  y3 f2 ~
  61. 01:40:51.879                             : en:01:40:51.879/ [) E# v. F' h  z* W; T
  62. 01:51:19.965                             : en:01:51:19.965, f; C8 u. M2 L& b% |9 C5 I2 o
  63. 01:59:28.119                             : en:01:59:28.119
    * q' R4 L) L0 g1 I+ a
  64. 02:08:28.743                             : en:02:08:28.743# m& a# H/ J' D; E! w. o
  65. 02:17:40.127                             : en:02:17:40.127
    . |+ j; F! s! j7 O( z0 s/ c1 ?& T% O
  66. 02:27:44.064                             : en:02:27:44.064
    1 o3 L* |" [, V6 L( u' g# K
  67. 02:35:26.317                             : en:02:35:26.317
    6 \8 }/ J# z! ~1 M+ v
  68. 02:42:50.094                             : en:02:42:50.094
复制代码
6 B4 M( c; w5 _. o+ ?/ t
超人之死与超人归来 The.Death.and.Return.of.Superman.2019.720p.BluRay.x264-GETiT 5.47GB-2.png " I, U& z1 |. E1 r, g
& o0 |& o6 q% y, E) v1 [8 h7 g6 F
/ n  F. q1 O- b( V- J; z3 q

, o! Y$ w  {, b% e' H! |4 m1 P& l4 H1 J" f( t: }
& K4 v' z+ q: [0 T% ]
4 l9 v; B5 n% E1 c+ e3 l
+ }& o& E  A, Y$ N6 S4 A
回复

使用道具 举报

级别:领衔主演 Lv.6

注册时间
2018-2-26
最后登录
2020-5-28
听众
17
收听
0
主题
0
蓝光币
276 枚
贡献
0 点
发表于 2019-11-12 09:20:25 | 显示全部楼层
- W4 L  T* D* ]  P, `2 U' Y
既然你诚信诚意的推荐了,那我就勉为其难的看看吧!中国高清电影网不走平凡路。
回复

使用道具 举报

级别:功成名就 Lv.9

注册时间
2019-4-24
最后登录
2020-5-25
听众
14
收听
0
主题
0
蓝光币
539 枚
贡献
0 点
发表于 2019-11-13 10:30:35 | 显示全部楼层
楼主发贴辛苦了,谢谢楼主分享!我觉得中国高清电影网是注册对了!
回复

使用道具 举报

级别:初级观众 Lv.1

注册时间
2019-11-24
最后登录
2020-4-23
听众
1
收听
0
主题
0
蓝光币
13 枚
贡献
0 点
发表于 2019-11-24 21:24:33 | 显示全部楼层
+ t, l9 d' @; L% K
这东西我收了!谢谢楼主!中国高清电影网真好!
回复

使用道具 举报

级别:普通观众 Lv.2

注册时间
2019-12-3
最后登录
2020-5-22
听众
1
收听
0
主题
0
蓝光币
7 枚
贡献
0 点
QQ
发表于 2019-12-29 14:32:29 | 显示全部楼层
动画版的呀
回复

使用道具 举报

级别:普通观众 Lv.2

注册时间
2019-8-4
最后登录
2020-4-19
听众
2
收听
0
主题
0
蓝光币
6 枚
贡献
0 点
发表于 2020-3-22 12:48:37 | 显示全部楼层
楼主发贴辛苦了,谢谢楼主分享!我觉得中国高清电影网是注册对了!
回复

使用道具 举报

懒得打字嘛,点击右侧快捷回复 【右侧内容,后台自定义】
您需要登录后才可以回帖 登录 | 立即注册

本版积分规则

Archiver|手机版|小黑屋| 中国高清网 ( ICP备17007870号-2 ) |网站地图 

GMT+8, 2020-5-28 12:38 , Processed in 0.163397 second(s), 39 queries .

Powered by HDchina X3.4

Copyright 2017-2019©HDchina.All right reserved

返回顶部 联系我们