查看: 63|回复: 1

[动作片] 流氓战争 Rogue.Warfare.2019.1080p.BluRay.REMUX.AVC.DTS-HD.MA.5.1-FGT 13.37GB

[复制链接]

 成长值: 3210

级别:资源管理组

注册时间
2017-10-20
最后登录
2019-11-20
听众
1
收听
0
主题
87221
蓝光币
63022 枚
贡献
11580 点
发表于 2019-11-11 09:26:08 | 显示全部楼层 |阅读模式
地痞战争 Rogue.Warfare.2019.1080p.BluRay.REMUX.AVC.DTS-HD.MA.5.1-FGT 13.37GB-1.png

译  名 地痞战争
片  名 Rogue Warfare
年  代 2017
产  地 美国
类  别 行动
语  言 英语
IMDb链接  http://www.imdb.com/title/tt5266668
豆瓣评分 0/10 from 0 users
豆瓣链接 https://movie.douban.com/subject/26992379/
导  演 麦克·冈瑟 Mike Gunther
编  剧 Sean Day Michael / Andrew Emilio DeCesare
主  演 姜成镐 Sung Kang
       Kenny Sheard
       Mike McKee


标  签 行动

简  介  

  A group of military elite from the U.S., Russia, UK, China and France join forces to fight an elite underground terrorist network.
  1. Video
  2. ID                                       : 1
  3. Format                                   : AVC
  4. Format/Info                              : Advanced Video Codec
  5. Format profile                           : High@L4
  6. Format settings                          : CABAC / 2 Ref Frames
  7. Format settings, CABAC                   : Yes
  8. Format settings, Reference frames        : 2 frames
  9. Codec ID                                 : V_MPEG4/ISO/AVC
  10. Duration                                 : 1 h 43 min
  11. Bit rate mode                            : Variable
  12. Bit rate                                 : 17.0 Mb/s
  13. Maximum bit rate                         : 30.2 Mb/s
  14. Width                                    : 1 920 pixels
  15. Height                                   : 1 080 pixels
  16. Display aspect ratio                     : 16:9
  17. Frame rate mode                          : Constant
  18. Frame rate                               : 23.976 (24000/1001) FPS
  19. Color space                              : YUV
  20. Chroma subsampling                       : 4:2:0
  21. Bit depth                                : 8 bits
  22. Scan type                                : Progressive
  23. Bits/(Pixel*Frame)                       : 0.342
  24. Stream size                              : 12.2 GiB (92%)
  25. Title                                    : Rogue.Warfare.2019.1080p.BluRay.REMUX.AVC.DTS-HD.MA.5.1-FGT
  26. Language                                 : English
  27. Default                                  : No
  28. Forced                                   : No

  29. Audio
  30. ID                                       : 2
  31. Format                                   : DTS XLL
  32. Format/Info                              : Digital Theater Systems
  33. Commercial name                          : DTS-HD Master Audio
  34. Codec ID                                 : A_DTS
  35. Duration                                 : 1 h 43 min
  36. Bit rate mode                            : Variable
  37. Bit rate                                 : 1 557 kb/s
  38. Channel(s)                               : 6 channels
  39. Channel layout                           : C L R Ls Rs LFE
  40. Sampling rate                            : 48.0 kHz
  41. Frame rate                               : 93.750 FPS (512 SPF)
  42. Bit depth                                : 16 bits
  43. Compression mode                         : Lossless
  44. Stream size                              : 1.12 GiB (8%)
  45. Title                                    : Rogue.Warfare.2019.1080p.BluRay.REMUX.AVC.DTS-HD.MA.5.1-FGT
  46. Language                                 : English
  47. Default                                  : Yes
  48. Forced                                   : No

  49. Menu
  50. 00:00:00.000                             : en:Chapter 01
  51. 00:04:04.035                             : en:Chapter 02
  52. 00:13:15.294                             : en:Chapter 03
  53. 00:19:40.637                             : en:Chapter 04
  54. 00:32:13.097                             : en:Chapter 05
  55. 00:44:34.713                             : en:Chapter 06
  56. 00:49:37.557                             : en:Chapter 07
  57. 00:57:14.305                             : en:Chapter 08
  58. 01:01:21.594                             : en:Chapter 09
  59. 01:13:10.219                             : en:Chapter 10
  60. 01:24:46.915                             : en:Chapter 11
  61. 01:34:12.063                             : en:Chapter 12
复制代码

地痞战争 Rogue.Warfare.2019.1080p.BluRay.REMUX.AVC.DTS-HD.MA.5.1-FGT 13.37GB-2.png 地痞战争 Rogue.Warfare.2019.1080p.BluRay.REMUX.AVC.DTS-HD.MA.5.1-FGT 13.37GB-3.png 地痞战争 Rogue.Warfare.2019.1080p.BluRay.REMUX.AVC.DTS-HD.MA.5.1-FGT 13.37GB-4.png







VIP会员免费任意下载本站所有资源!---点击开通
回复

使用道具 举报

级别:普通观众 Lv.2

注册时间
2019-3-28
最后登录
2019-11-19
听众
8
收听
0
主题
0
蓝光币
21 枚
贡献
0 点
发表于 前天 00:40 | 显示全部楼层

我看不错噢 谢谢楼主!中国高清电影网越来越好!
VIP会员免费任意下载本站所有资源!---点击开通
回复

使用道具 举报

懒得打字嘛,点击右侧快捷回复 【右侧内容,后台自定义】
您需要登录后才可以回帖 登录 | 立即注册

本版积分规则

QQ|Archiver|手机版|小黑屋| 中国高清网 |网站地图

GMT+8, 2019-11-20 09:54 , Processed in 0.238446 second(s), 37 queries .

Powered by HDchina X3.4

Copyright 2017-2019©HDchina.All right reserved

返回顶部 联系我们