查看: 195|回复: 1

[恐怖片] 剥皮女魔 Skinner.1993.720p.BluRay.x264-SPOOKS 3.28GB

[复制链接]

 成长值: 5500

级别:资源管理组

注册时间
2017-10-20
最后登录
2020-6-1
听众
1
收听
0
主题
96327
蓝光币
153984 枚
贡献
20705 点
发表于 2019-11-10 18:24:38 | 显示全部楼层 |阅读模式
剥皮女魔 Skinner.1993.720p.BluRay.x264-SPOOKS 3.28GB-1.png
$ g% A: M3 V* `
8 w* z4 v% @! L) }译  名 剥皮女魔
: ]% A( P$ r$ {0 t5 h片  名 Skinner
( i$ M' b% Y2 y( S年  代 1993: u! {8 s3 O" w+ G2 v; q5 E
产  地 美国8 S( ?- U" C: w& G- m0 r
类  别 可骇/ k0 ?9 e& @# Z& w, ~6 v
语  言 英语
6 O5 e& Q; R2 {+ D上映日期 1995-07-12
" m5 a2 j0 O1 ?+ u) `1 ]0 KIMDb评分  5.0/10 from 500 users
( {; E6 @, z3 H( N( AIMDb链接  http://www.imdb.com/title/tt0114466' V: {- D$ W3 y6 s. E5 N9 ]
豆瓣评分 0/10 from 0 users! O, y- {  J0 Q/ y7 |' g. G' w
豆瓣链接 https://movie.douban.com/subject/1298775/" T, F7 F& D, w* B8 c# A
片  长 90分钟
/ D, d8 o; `2 b& U1 l. V, [导  演 Ivan Nagy (I)5 O$ i. X' j& p' {* c( N2 K
编  剧 Paul Hart-Wilden
- ?( s! _- G6 y主  演 Traci Lords
" b# f) r7 S8 T8 J" x' J       Richard SchiffDavid
' o# G6 h( [4 N: N       Ted Raimi
1 R4 R- `) _( l
' Q! B( }4 _* r- H6 `+ w; q" W  e* L9 w* c  B& h
标  签 可骇 | 血腥 | 变态 | 剥皮女魔 | 杀戮 | 美国电影 | VCD | 14 e$ }! f+ F" w3 F3 v0 Q& U' H' I
1 o) Z6 v9 v# x# S$ N; Y
简  介  2 v2 B5 F0 E2 f% _3 F  J' g
; x' |, U4 G$ c
  海蒂被一残暴的神经病患丹尼斯毁容,他专门在城市里的街道及河滨猎取不知情的妓女,海蒂一心复仇,无法计齐截次又一次地失利。正当另一位女子凯莉被丹尼斯抓走之际,海蒂及凯莉的丈夫杰夫实时在一间烧毁的仓库找到了他们,就在丹尼斯预备切割凯莉时,海蒂牺牲了自己...。
. P# T5 c( g9 R& p6 K
  1. Video
    , D8 @% j3 E1 z# h5 M. N
  2. ID                                       : 1
    , L2 R1 ]( N' N& w" |- D
  3. Format                                   : AVC
    . u, W7 |* l1 N' }8 C; G" |
  4. Format/Info                              : Advanced Video Codec/ Y1 M0 S  a+ a1 h
  5. Format profile                           : High@L4! o$ T0 z. g! E3 `" `1 D
  6. Format settings                          : CABAC / 9 Ref Frames
    " L* j9 W2 B( T0 v1 C" g
  7. Format settings, CABAC                   : Yes. b0 O$ q( ~6 |  O* ?' P% c, z3 a
  8. Format settings, Reference frames        : 9 frames
    8 K& U- f& ^3 l8 a- N
  9. Codec ID                                 : V_MPEG4/ISO/AVC+ S) Q" v3 O9 ~, k
  10. Duration                                 : 1 h 28 min
    9 H7 H3 o- v: Z4 F
  11. Bit rate                                 : 4 756 kb/s+ e, d+ b( ~; |3 r! U2 S
  12. Width                                    : 1 280 pixels
    " [* L$ f: P9 \
  13. Height                                   : 720 pixels9 s, v) D1 F" C
  14. Display aspect ratio                     : 16:9
    9 \! {0 ]' W+ X
  15. Frame rate mode                          : Constant! T# U  r" {/ B1 l& U  ~& X# R: X
  16. Frame rate                               : 23.976 (24000/1001) FPS" P  {) z. N4 I" z1 w6 C: H; \& J
  17. Color space                              : YUV
    / r& Y2 X5 R8 ?+ L" k
  18. Chroma subsampling                       : 4:2:0
    $ V$ _& a4 V: G, y
  19. Bit depth                                : 8 bits% Z* K4 M* l5 y6 ?" u5 J& m
  20. Scan type                                : Progressive
    * H; [# R( ?: d& c! ^3 _! Y& W
  21. Bits/(Pixel*Frame)                       : 0.215
    ! D5 {1 M5 o' K( J
  22. Stream size                              : 2.93 GiB (89%)' ?" ]  e; j, L6 J2 C& l3 ?
  23. Writing library                          : x264 core 158 r2988 7817004
    % ^; e3 }7 K( S5 _' A& X
  24. Encoding settings                        : cabac=1 / ref=9 / deblock=1:-3:-3 / analyse=0x3:0x133 / me=umh / subme=9 / psy=1 / psy_rd=1.00:0.00 / mixed_ref=1 / me_range=24 / chroma_me=1 / trellis=1 / 8x8dct=1 / cqm=0 / deadzone=21,11 / fast_pskip=0 / chroma_qp_offset=-2 / threads=22 / lookahead_threads=3 / sliced_threads=0 / nr=0 / decimate=1 / interlaced=0 / bluray_compat=0 / constrained_intra=0 / bframes=8 / b_pyramid=2 / b_adapt=2 / b_bias=0 / direct=3 / weightb=1 / open_gop=0 / weightp=2 / keyint=250 / keyint_min=23 / scenecut=40 / intra_refresh=0 / rc_lookahead=60 / rc=2pass / mbtree=1 / bitrate=4756 / ratetol=1.0 / qcomp=0.60 / qpmin=0 / qpmax=69 / qpstep=4 / cplxblur=20.0 / qblur=0.5 / vbv_maxrate=62500 / vbv_bufsize=78125 / nal_hrd=none / filler=0 / ip_ratio=1.40 / aq=1:1.00
    . B! Z. }) |+ o6 n' A# v+ M
  25. Default                                  : Yes
    % ~! `" v, i5 K& X. c
  26. Forced                                   : No
    5 c# S4 R5 C) R; ]; e9 p
  27. & C/ u1 d0 Y8 R8 X
  28. Audio# I1 X% V( V/ T. y
  29. ID                                       : 2
    : P$ E4 M& _" q4 v
  30. Format                                   : FLAC
    2 E+ e% G" k- c: f
  31. Format/Info                              : Free Lossless Audio Codec
      f; w' i! D5 ^8 D$ m4 _* g
  32. Codec ID                                 : A_FLAC
    * g, k. n& X8 R4 E9 b1 a
  33. Duration                                 : 1 h 28 min7 O$ C, Z! M" i, ?8 @6 F% S
  34. Bit rate mode                            : Variable+ u) `4 |9 A& Z  P
  35. Bit rate                                 : 556 kb/s
    . ~4 P& k# ]# k
  36. Channel(s)                               : 2 channels) P9 F* o) v7 |! n
  37. Channel layout                           : L R
    ( o5 y4 `0 ^8 A" J' i0 |' D! i
  38. Sampling rate                            : 48.0 kHz6 F$ c; ^4 W) U' c. b
  39. Frame rate                               : 10.417 FPS (4608 SPF)# J1 k7 G0 o1 d+ c7 O% B0 L! H, R
  40. Bit depth                                : 16 bits& Z* h. ]. ^1 L7 z3 f5 Z
  41. Compression mode                         : Lossless
    . }( v7 W$ V1 j5 K7 K8 @
  42. Stream size                              : 351 MiB (10%)% U( ^$ [. n5 b
  43. Writing library                          : Lavf58.29.100
    . f$ |4 E& z$ l* G
  44. Language                                 : English( }5 ?/ {, U, x5 ]  b3 l1 \* a
  45. Default                                  : Yes
    , B: ~5 c9 Q$ X+ b2 z; A; z3 x
  46. Forced                                   : No
    , z8 P4 E9 o# \( Q6 N( r( }8 t+ p' t
  47. 8 o, O% d+ }& }3 ?1 w' W
  48. Menu0 i) T: X6 q+ \2 f6 @0 d$ ^
  49. 00:00:00.000                             : en:Chapter 01% n. e( ]4 H  i: O  x) I' S
  50. 00:11:20.430                             : en:Chapter 02: f" n2 F! W" E) A/ N- q* ?
  51. 00:23:50.387                             : en:Chapter 03) t3 |7 x5 I) c) d; y! L
  52. 00:37:53.062                             : en:Chapter 04
    9 X% \* K2 W) v( V, L
  53. 00:54:25.971                             : en:Chapter 05
    ! f3 m0 a/ a* r$ _4 [
  54. 01:06:55.220                             : en:Chapter 068 S! F, S% N2 O  k9 `
  55. 01:16:21.076                             : en:Chapter 07
    9 N6 `6 L1 Z  d3 a
  56. 01:25:29.124                             : en:Chapter 08
复制代码

9 C- R4 B/ g2 \8 Q1 U 剥皮女魔 Skinner.1993.720p.BluRay.x264-SPOOKS 3.28GB-2.png 9 i3 v; m! d1 @& m: J
, D( b8 L! @1 I$ o* k0 t

0 F( _1 s( y  F9 m4 L' ?8 _- c: S5 @7 H+ a6 H

- T; @* g: `8 R3 _4 h2 k1 q4 V! a# B3 n; M* Z' o
" A% l& N+ o5 v2 o
# e! ^  Q9 D5 ~( y
回复

使用道具 举报

级别:功成名就 Lv.9

注册时间
2019-4-24
最后登录
2020-6-1
听众
14
收听
0
主题
0
蓝光币
540 枚
贡献
0 点
发表于 2019-11-13 10:32:03 | 显示全部楼层
楼主发贴辛苦了,谢谢楼主分享!我觉得中国高清电影网是注册对了!
回复

使用道具 举报

懒得打字嘛,点击右侧快捷回复 【右侧内容,后台自定义】
您需要登录后才可以回帖 登录 | 立即注册

本版积分规则

Archiver|手机版|小黑屋| 中国高清网 ( ICP备17007870号-2 ) |网站地图 

GMT+8, 2020-6-1 21:39 , Processed in 0.158460 second(s), 38 queries .

Powered by HDchina X3.4

Copyright 2017-2019©HDchina.All right reserved

返回顶部 联系我们