查看: 80|回复: 1

[剧情片] 虐待 Manhandled.1924.720p.BluRay.x264-LATENCY 2.64GB

[复制链接]

 成长值: 3430

级别:资源管理组

注册时间
2017-10-20
最后登录
2019-12-11
听众
1
收听
0
主题
88414
蓝光币
70252 枚
贡献
12776 点
发表于 2019-11-8 14:04:36 | 显示全部楼层 |阅读模式
凌虐 Manhandled.1924.720p.BluRay.x264-LATENCY 2.64GB-1.png
- o' e, k9 N6 g) m
4 D) x+ m$ `# L  Z/ o! h译  名 凌虐
4 a! o7 V& R7 L0 a片  名 Manhandled' m0 F9 ?* r8 s7 V: o4 l; [3 J
年  代 1924
# L+ o; m* n1 S4 S- `( w' e, k4 {; ^产  地 美国" I, Y  {# A9 z5 k$ s0 `" u. T9 |
类  别 剧情 / 笑剧
: O. q2 l# ~5 @7 E上映日期 1924
% E' Q1 S# }* m1 W  ~& G) r* zIMDb评分  6.5/10 from 922 users
. W- D7 C, m3 o. _, c3 }/ I7 wIMDb链接  https://www.imdb.com/title/tt0015116
' E/ \  D  t* x5 C/ Z7 \6 o豆瓣评分 0/10 from 0 users
' Y* v- O) s/ L' I豆瓣链接 https://movie.douban.com/subject/5077875/5 q0 R+ l8 b2 a+ V- ?
片  长 USA: 75 分钟, p2 k5 Z* C! w6 I
导  演 Allan Dwan
2 G7 i3 d4 i- d: i8 G编  剧 Julian Johnson
- R3 r# Z- J" l5 L( T: x主  演 葛洛丽亚·斯旺森 Gloria Swanson
7 J; d" O' v# _5 U+ J. T8 q, S       莉莲·塔斯曼 Lilyan Tashman
3 h3 |! \; Y: a9 F; s8 u       Tom Moore
& n& j4 R' b: f- G, \       Ian Keith- `* f: @, A" t9 }$ F
       Arthur Housman+ ]2 x; C1 h/ H  X
       弗兰克·摩根 Frank Morgan
( U  N& j6 T7 f# U, i  q       Paul McAllister7 u7 n* |7 [; u! i, P% j% }; ]
! }/ z3 f1 }# ~* W2 B6 l1 d1 E
& f/ ~6 A2 B/ x* G/ b3 v
标  签 默片 | 1924中國 | 1920s | 美国 | 美國 | 的 | 吃紧吃紧吃紧吃紧吃紧吃紧吃紧吃紧吃紧吃紧吃紧吃紧吃紧 | tik1 F: X( I# {* ?1 r" J
- o8 D( n& ]  T; s5 e5 G- p
简  介  7 s' ?* O5 P) v4 A. T& T$ e) g5 U
2 y  b  u9 ?6 h! K
  暂无相关剧情先容- D/ h! h( o/ o  d
  1. Video
    ' a% z9 P: C/ ^3 e. g" g
  2. ID                                       : 13 k! @7 d! c) v) @! C; b- `: e$ W
  3. Format                                   : AVC5 ]  L/ h4 r& E- K$ d8 _
  4. Format/Info                              : Advanced Video Codec
    ' D, \" ]* z4 W
  5. Format profile                           : High@L4
    0 }$ ^% N! k6 T9 ]. A+ Y' f0 c
  6. Format settings                          : CABAC / 5 Ref Frames, G7 @$ j5 `2 m  [' Q. B
  7. Format settings, CABAC                   : Yes
    ) D- n1 C( [+ z" \1 ~/ @. S
  8. Format settings, Reference frames        : 5 frames
    & r4 j' e1 B9 m' g
  9. Codec ID                                 : V_MPEG4/ISO/AVC
    5 \/ m, D' Z3 e
  10. Duration                                 : 1 h 2 min! f% T. i, H. w  {" K! c$ J
  11. Bit rate                                 : 4 500 kb/s
    ; K) `, r: ^' m, ^
  12. Width                                    : 960 pixels) o8 L  M* t9 w+ l
  13. Height                                   : 720 pixels& ]% Q8 L, Y+ D4 {2 K+ V7 s$ N
  14. Display aspect ratio                     : 4:3
    / T2 ]% U" T0 I  O9 B, N
  15. Frame rate mode                          : Constant
    - d" ^1 m9 F5 J( ~& L: w3 _
  16. Frame rate                               : 23.976 (24000/1001) FPS
    7 S0 i' V5 @  q3 T3 E
  17. Color space                              : YUV- q  s$ b, S0 j6 l6 L, V5 U8 z
  18. Chroma subsampling                       : 4:2:0, J+ ?$ Y4 E" M# B8 C; [  S( e
  19. Bit depth                                : 8 bits: k0 V' Z1 \- c/ Q; W
  20. Scan type                                : Progressive& V. d. [8 j) ]' F/ E3 @) s
  21. Bits/(Pixel*Frame)                       : 0.272
    . Z! X8 q, c9 Z
  22. Stream size                              : 1.98 GiB (75%)4 _; U# z, \2 g) {! z1 w% H
  23. Writing library                          : x264 core 157 r2969 d4099dd/ }+ f* k8 ?2 V
  24. Encoding settings                        : cabac=1 / ref=5 / deblock=1:0:0 / analyse=0x3:0x113 / me=umh / subme=8 / psy=1 / psy_rd=1.00:0.00 / mixed_ref=1 / me_range=16 / chroma_me=1 / trellis=2 / 8x8dct=1 / cqm=0 / deadzone=21,11 / fast_pskip=0 / chroma_qp_offset=-2 / threads=22 / lookahead_threads=3 / sliced_threads=0 / nr=0 / decimate=1 / interlaced=0 / bluray_compat=0 / constrained_intra=0 / bframes=3 / b_pyramid=2 / b_adapt=1 / b_bias=0 / direct=3 / weightb=1 / open_gop=0 / weightp=2 / keyint=250 / keyint_min=23 / scenecut=40 / intra_refresh=0 / rc_lookahead=50 / rc=2pass / mbtree=1 / bitrate=4500 / ratetol=1.0 / qcomp=0.60 / qpmin=0 / qpmax=69 / qpstep=4 / cplxblur=20.0 / qblur=0.5 / ip_ratio=1.40 / aq=1:1.00
    $ k" B. G# B. _
  25. Default                                  : Yes* K4 A* ?0 ?; x( a; b$ [9 g
  26. Forced                                   : No3 x8 q6 S7 N( Q5 T; y' [6 q+ w# g1 k

  27. 2 D, X/ b2 u9 N* @
  28. Audio
    $ ?6 k# A5 n# ~, U( Z% a2 i6 o  Y" x, P
  29. ID                                       : 28 W% w) ~- H& y4 A4 b- v5 v- z
  30. Format                                   : DTS
    9 D8 d7 A. X; s9 W% r/ r, \
  31. Format/Info                              : Digital Theater Systems' X3 J" K! R  ^- h" @- M, e+ y: \
  32. Codec ID                                 : A_DTS! c9 ^( L; d8 W8 b, L
  33. Duration                                 : 1 h 2 min
    ; y. ]% U' r0 t5 m# Y( Y
  34. Bit rate mode                            : Constant3 Y! ~8 |& L! ~% n0 ^+ a* ?! g
  35. Bit rate                                 : 1 509 kb/s8 D. r$ n0 k7 {8 M( z$ I( u0 d8 I% e
  36. Channel(s)                               : 2 channels: S" R' n) w$ H5 m
  37. Channel layout                           : L R
    - G5 R, v, b% W2 [5 e  W/ Z  X
  38. Sampling rate                            : 48.0 kHz6 t% {" [' Q$ }. o& ?
  39. Frame rate                               : 93.750 FPS (512 SPF)
    6 I. K; w! {/ b; `4 r8 B" w
  40. Bit depth                                : 24 bits
    , x+ p& q0 _! b5 l3 {8 [+ {; `$ U
  41. Compression mode                         : Lossy
    1 Y) u" ~) O) C' J
  42. Stream size                              : 680 MiB (25%)4 s9 a) `9 b. D! ?5 d0 b: J
  43. Title                                    : English
    . e) `1 J9 {2 ?/ r$ ?; G: T
  44. Language                                 : English
    7 ~4 K- P7 ^. z: M& }& T; y9 s& s9 |
  45. Default                                  : No
    ; H$ K, V& U, d- N4 X* V; ?7 l  d
  46. Forced                                   : No
    1 H' M: a7 X  x  c; ~+ \6 z9 J3 a

  47. 7 o* x: F7 A9 R' U, Z1 y* y" f
  48. Menu$ M8 k2 B- r: h& x& ^$ e5 z) Q
  49. 00:00:00.000                             : en:Chapter 01# T. x8 ^+ N7 I6 b* `; @6 q
  50. 00:05:55.897                             : en:Chapter 02
    ' t& }5 {+ i; l( G4 c* s! N
  51. 00:13:19.507                             : en:Chapter 03
    & g# x& Q+ v, x1 A
  52. 00:19:32.546                             : en:Chapter 04
    ( b. H3 ?* w9 x- J
  53. 00:26:45.646                             : en:Chapter 054 U: _" @4 R0 d. b5 c8 T" A. W) z
  54. 00:34:09.256                             : en:Chapter 06
    , a- M; t8 J( x
  55. 00:40:15.121                             : en:Chapter 07" Q: a1 k5 e% d7 T( n7 v
  56. 00:49:08.863                             : en:Chapter 08
    * o5 v: H; I2 Q0 m
  57. 00:51:28.669                             : en:Chapter 093 {6 \6 u' O" a% q$ Q5 k
  58. 00:54:34.313                             : en:Chapter 10
复制代码
; A+ ]. R, K6 F0 J- P
凌虐 Manhandled.1924.720p.BluRay.x264-LATENCY 2.64GB-2.png 9 }5 w6 W" m, w) y! G
3 i! t+ H( K$ A, \3 A

- Q- n3 g& j  o* e5 n/ i2 v  `8 e& b$ o: N4 a! x1 D

, U" g+ H, Z# z" e. o- w# G0 d: G& G$ v/ ^: l8 q+ q
1 r- w, ~' ~% L5 d2 N
7 q$ V2 p# Y% R8 k# _1 w! Z
VIP会员免费任意下载本站所有资源!---点击开通
回复

使用道具 举报

级别:一线明星 Lv.8

注册时间
2019-4-24
最后登录
2019-12-12
听众
14
收听
0
主题
0
蓝光币
218 枚
贡献
0 点
发表于 2019-11-13 10:33:40 | 显示全部楼层
楼主发贴辛苦了,谢谢楼主分享!我觉得中国高清电影网是注册对了!
VIP会员免费任意下载本站所有资源!---点击开通
回复

使用道具 举报

懒得打字嘛,点击右侧快捷回复 【右侧内容,后台自定义】
您需要登录后才可以回帖 登录 | 立即注册

本版积分规则

QQ|Archiver|手机版|小黑屋| 中国高清网 |网站地图

GMT+8, 2019-12-12 10:56 , Processed in 0.304493 second(s), 37 queries .

Powered by HDchina X3.4

Copyright 2017-2019©HDchina.All right reserved

返回顶部 联系我们