查看: 45|回复: 0

[剧情片] 别告诉她/不要告诉她 The.Farewell.2019.CHINESE.1080p.BluRay.REMUX.AVC.DTS-HD.MA.5.1-FGT 26.45GB

[复制链接]

 成长值: 3160

级别:资源管理组

注册时间
2017-10-20
最后登录
2019-11-15
听众
1
收听
0
主题
86793
蓝光币
61952 枚
贡献
11151 点
发表于 7 天前 | 显示全部楼层 |阅读模式
别告诉她/不要告诉她 The.Farewell.2019.CHINESE.1080p.BluRay.REMUX.AVC.DTS-HD.MA.5.1-FGT 26.45GB-1.png

译  名 别告诉她 / 不要告诉她 / 别对她说 / 离别婚礼
片  名 The Farewell
年  代 2019
产  地 美国
类  别 剧情 / 笑剧
语  言 英语 / 汉语普通话 / 日语
上映日期 2019-01-25(圣丹斯电影节) / 2019-07-12(美国) / 2019-11-22(中国大陆)
IMDb评分  8.1/10 from 8477 users
IMDb链接  https://www.imdb.com/title/tt8637428
豆瓣评分 8.0/10 from 4000 users
豆瓣链接 https://movie.douban.com/subject/30390144/
片  长 98分钟
导  演 王子逸 Lulu Wang
编  剧 王子逸 Lulu Wang
主  演 奥卡菲娜 Awkwafina
       马志 Tzi Ma
       林晓杰 Diana Lin
       赵淑珍 Shuzhen Zhao
       姜永波 Yongbo Jiang
       水原碧衣 Aoi Mizuhara
       章静 Jing Zhang
       吉尔·佩雷斯-亚伯拉罕 Gil Perez-Abraham
       刘敬宇 Jim Liu


标  签 家庭 | 美国 | 中国 | 2019 | 剧情 | 笑剧 | 圣丹斯电影节 | 自力

简  介  

  影片报告一个华人家庭的奶奶被诊断罹癌,但家人挑选隐瞒奶奶,假借一场婚礼的名义让一切家人回家见奶奶最初一面,但在纽约长大的碧莉(奥卡菲娜饰演)以为晓得自己病况是奶奶的人权,是以在华人家庭中上演一场中西文化抵触,一部寻根家庭笑剧。故事改编自华裔女导演王子逸自己的家庭故事,她也因本片被《综艺》杂志评选2019年必关注导演之一。

获奖情况  

  第35届圣丹斯电影节(2019)
  评审团大奖 剧情片(提名) 王子逸

  第29届哥谭自力电影奖(2019)
  最好影片(提名)
  最好女演员(提名) 奥卡菲娜
  最好剧本(提名) 王子逸
  1. Video
  2. ID                                       : 1
  3. Format                                   : AVC
  4. Format/Info                              : Advanced Video Codec
  5. Format profile                           : High@L4
  6. Format settings                          : CABAC / 4 Ref Frames
  7. Format settings, CABAC                   : Yes
  8. Format settings, Reference frames        : 4 frames
  9. Codec ID                                 : V_MPEG4/ISO/AVC
  10. Duration                                 : 1 h 39 min
  11. Bit rate mode                            : Variable
  12. Bit rate                                 : 34.7 Mb/s
  13. Maximum bit rate                         : 37.0 Mb/s
  14. Width                                    : 1 920 pixels
  15. Height                                   : 1 080 pixels
  16. Display aspect ratio                     : 16:9
  17. Frame rate mode                          : Constant
  18. Frame rate                               : 23.976 (24000/1001) FPS
  19. Color space                              : YUV
  20. Chroma subsampling                       : 4:2:0
  21. Bit depth                                : 8 bits
  22. Scan type                                : Progressive
  23. Bits/(Pixel*Frame)                       : 0.698
  24. Stream size                              : 24.2 GiB (92%)
  25. Title                                    : The.Farewell.2019.CHINESE.1080p.BluRay.REMUX.AVC.DTS-HD.MA.5.1-FGT
  26. Language                                 : English
  27. Default                                  : No
  28. Forced                                   : No

  29. Audio #1
  30. ID                                       : 2
  31. Format                                   : DTS XLL
  32. Format/Info                              : Digital Theater Systems
  33. Commercial name                          : DTS-HD Master Audio
  34. Codec ID                                 : A_DTS
  35. Duration                                 : 1 h 39 min
  36. Bit rate mode                            : Variable
  37. Bit rate                                 : 2 975 kb/s
  38. Channel(s)                               : 6 channels
  39. Channel layout                           : C L R Ls Rs LFE
  40. Sampling rate                            : 48.0 kHz
  41. Frame rate                               : 93.750 FPS (512 SPF)
  42. Bit depth                                : 24 bits
  43. Compression mode                         : Lossless
  44. Stream size                              : 2.08 GiB (8%)
  45. Title                                    : The.Farewell.2019.CHINESE.1080p.BluRay.REMUX.AVC.DTS-HD.MA.5.1-FGT
  46. Language                                 : Chinese
  47. Default                                  : Yes
  48. Forced                                   : No

  49. Audio #2
  50. ID                                       : 3
  51. Format                                   : AC-3
  52. Format/Info                              : Audio Coding 3
  53. Commercial name                          : Dolby Digital
  54. Codec ID                                 : A_AC3
  55. Duration                                 : 1 h 39 min
  56. Bit rate mode                            : Constant
  57. Bit rate                                 : 192 kb/s
  58. Channel(s)                               : 2 channels
  59. Channel layout                           : L R
  60. Sampling rate                            : 48.0 kHz
  61. Frame rate                               : 31.250 FPS (1536 SPF)
  62. Bit depth                                : 16 bits
  63. Compression mode                         : Lossy
  64. Stream size                              : 137 MiB (1%)
  65. Title                                    : The.Farewell.2019.CHINESE.1080p.BluRay.REMUX.AVC.DTS-HD.MA.5.1-FGT
  66. Language                                 : Chinese
  67. Service kind                             : Complete Main
  68. Default                                  : No
  69. Forced                                   : No

  70. Text #1
  71. ID                                       : 4
  72. Format                                   : UTF-8
  73. Codec ID                                 : S_TEXT/UTF8
  74. Codec ID/Info                            : UTF-8 Plain Text
  75. Duration                                 : 1 h 31 min
  76. Bit rate                                 : 22 b/s
  77. Count of elements                        : 597
  78. Stream size                              : 15.4 KiB (0%)
  79. Title                                    : English-SRT
  80. Language                                 : English
  81. Default                                  : Yes
  82. Forced                                   : No

  83. Text #2
  84. ID                                       : 5
  85. Format                                   : PGS
  86. Muxing mode                              : zlib
  87. Codec ID                                 : S_HDMV/PGS
  88. Codec ID/Info                            : Picture based subtitle format used on BDs/HD-DVDs
  89. Duration                                 : 1 h 31 min
  90. Bit rate                                 : 15.4 kb/s
  91. Count of elements                        : 1237
  92. Stream size                              : 10.1 MiB (0%)
  93. Title                                    : English-PGS
  94. Language                                 : English
  95. Default                                  : No
  96. Forced                                   : No

  97. Text #3
  98. ID                                       : 6
  99. Format                                   : PGS
  100. Muxing mode                              : zlib
  101. Codec ID                                 : S_HDMV/PGS
  102. Codec ID/Info                            : Picture based subtitle format used on BDs/HD-DVDs
  103. Duration                                 : 1 h 38 min
  104. Bit rate                                 : 29.9 kb/s
  105. Count of elements                        : 2230
  106. Stream size                              : 21.2 MiB (0%)
  107. Title                                    : Spanish-PGS
  108. Language                                 : Spanish
  109. Default                                  : No
  110. Forced                                   : No

  111. Menu
  112. 00:00:00.000                             : en:Chapter 01
  113. 00:06:05.198                             : en:Chapter 02
  114. 00:12:44.180                             : en:Chapter 03
  115. 00:19:49.104                             : en:Chapter 04
  116. 00:25:18.767                             : en:Chapter 05
  117. 00:30:53.935                             : en:Chapter 06
  118. 00:35:05.228                             : en:Chapter 07
  119. 00:44:44.306                             : en:Chapter 08
  120. 00:51:28.168                             : en:Chapter 09
  121. 00:55:31.244                             : en:Chapter 10
  122. 01:03:09.368                             : en:Chapter 11
  123. 01:07:16.365                             : en:Chapter 12
  124. 01:15:48.877                             : en:Chapter 13
  125. 01:22:03.418                             : en:Chapter 14
  126. 01:27:38.670                             : en:Chapter 15
  127. 01:32:33.923                             : en:Chapter 16
复制代码

别告诉她/不要告诉她 The.Farewell.2019.CHINESE.1080p.BluRay.REMUX.AVC.DTS-HD.MA.5.1-FGT 26.45GB-2.png 别告诉她/不要告诉她 The.Farewell.2019.CHINESE.1080p.BluRay.REMUX.AVC.DTS-HD.MA.5.1-FGT 26.45GB-3.png 别告诉她/不要告诉她 The.Farewell.2019.CHINESE.1080p.BluRay.REMUX.AVC.DTS-HD.MA.5.1-FGT 26.45GB-4.png







VIP会员免费任意下载本站所有资源!---点击开通
回复

使用道具 举报

懒得打字嘛,点击右侧快捷回复 【右侧内容,后台自定义】
您需要登录后才可以回帖 登录 | 立即注册

本版积分规则

QQ|Archiver|手机版|小黑屋| 中国高清网 |网站地图 

GMT+8, 2019-11-15 20:54 , Processed in 0.248266 second(s), 37 queries .

Powered by HDchina X3.4

Copyright 2017-2019©HDchina.All right reserved

返回顶部 联系我们