查看: 40|回复: 0

[战争片] 罗伯特·布鲁斯 Robert.the.Bruce.2019.1080p.BluRay.REMUX.AVC.DTS-HD.MA.5.1-FGT 29.00GB

[复制链接]

 成长值: 3160

级别:资源管理组

注册时间
2017-10-20
最后登录
2019-11-15
听众
1
收听
0
主题
86768
蓝光币
61946 枚
贡献
11126 点
发表于 2019-11-7 23:23:00 | 显示全部楼层 |阅读模式
罗伯特·布鲁斯 Robert.the.Bruce.2019.1080p.BluRay.REMUX.AVC.DTS-HD.MA.5.1-FGT 29.00GB-1.png

译  名 罗伯特·布鲁斯
片  名 Robert the Bruce
年  代 2019
产  地 美国
类  别 历史
语  言 英语
上映日期 2019-06-28(英国)
IMDb评分  5.4/10 from 470 users
IMDb链接  https://www.imdb.com/title/tt8000908
豆瓣评分 0/10 from 0 users
豆瓣链接 https://movie.douban.com/subject/30199661/
片  长 124分钟
导  演 理查德·格雷 Richard Gray
主  演 艾玛·肯尼 Emma Kenney
       扎克·麦克格温 Zach McGowan
       杰瑞德·哈里斯 Jared Harris
       派屈克·福吉特 Patrick Fugit
       凯文·麦克纳利 Kevin McNally
       安娜·哈彻森 Anna Hutchison
       梅罗拉·沃特斯 Melora Walters
       特丽莎·贝特曼 Talitha Bateman
       安古斯·麦克菲登 Angus Macfadyen
       Mhairi Calvey
       加布里埃尔·贝特曼 Gabriel Bateman
       迪尔梅德·默塔 Diarmaid Murtagh
       沙恩·科费 Shane Coffey
       Anthony J. Sharpe
       Gianni Capaldi


标  签 战争 | 历史

简  介  

  The story of nobleman-turned-outlaw hero who was crowned king of Scots in the 14th century.
  1. Video
  2. ID                                       : 1
  3. Format                                   : AVC
  4. Format/Info                              : Advanced Video Codec
  5. Format profile                           : High@L4
  6. Format settings                          : CABAC / 4 Ref Frames
  7. Format settings, CABAC                   : Yes
  8. Format settings, Reference frames        : 4 frames
  9. Codec ID                                 : V_MPEG4/ISO/AVC
  10. Duration                                 : 2 h 3 min
  11. Bit rate mode                            : Constant
  12. Bit rate                                 : 28.5 Mb/s
  13. Nominal bit rate                         : 30.0 Mb/s
  14. Width                                    : 1 920 pixels
  15. Height                                   : 1 080 pixels
  16. Display aspect ratio                     : 16:9
  17. Frame rate mode                          : Constant
  18. Frame rate                               : 24.000 FPS
  19. Standard                                 : NTSC
  20. Color space                              : YUV
  21. Chroma subsampling                       : 4:2:0
  22. Bit depth                                : 8 bits
  23. Scan type                                : Progressive
  24. Bits/(Pixel*Frame)                       : 0.572
  25. Stream size                              : 24.6 GiB (85%)
  26. Title                                    : Robert.the.Bruce.2019.1080p.BluRay.REMUX.AVC.DTS-HD.MA.5.1-FGT
  27. Language                                 : English
  28. Default                                  : No
  29. Forced                                   : No
  30. Color range                              : Limited
  31. Color primaries                          : BT.709
  32. Transfer characteristics                 : BT.709
  33. Matrix coefficients                      : BT.709

  34. Audio #1
  35. ID                                       : 2
  36. Format                                   : DTS XLL
  37. Format/Info                              : Digital Theater Systems
  38. Commercial name                          : DTS-HD Master Audio
  39. Codec ID                                 : A_DTS
  40. Duration                                 : 2 h 3 min
  41. Bit rate mode                            : Variable
  42. Bit rate                                 : 2 028 kb/s
  43. Channel(s)                               : 6 channels
  44. Channel layout                           : C L R Ls Rs LFE
  45. Sampling rate                            : 48.0 kHz
  46. Frame rate                               : 93.750 FPS (512 SPF)
  47. Bit depth                                : 16 bits
  48. Compression mode                         : Lossless
  49. Stream size                              : 1.75 GiB (6%)
  50. Title                                    : Robert.the.Bruce.2019.1080p.BluRay.REMUX.AVC.DTS-HD.MA.5.1-FGT
  51. Language                                 : English
  52. Default                                  : Yes
  53. Forced                                   : No

  54. Audio #2
  55. ID                                       : 3
  56. Format                                   : PCM
  57. Format settings                          : Little / Signed
  58. Codec ID                                 : A_PCM/INT/LIT
  59. Duration                                 : 2 h 3 min
  60. Bit rate mode                            : Constant
  61. Bit rate                                 : 1 536 kb/s
  62. Channel(s)                               : 2 channels
  63. Sampling rate                            : 48.0 kHz
  64. Frame rate                               : 30.000 FPS (1600 SPF)
  65. Bit depth                                : 16 bits
  66. Stream size                              : 1.33 GiB (5%)
  67. Title                                    : Robert.the.Bruce.2019.1080p.BluRay.REMUX.AVC.DTS-HD.MA.5.1-FGT
  68. Language                                 : English
  69. Default                                  : No
  70. Forced                                   : No

  71. Audio #3
  72. ID                                       : 4
  73. Format                                   : PCM
  74. Format settings                          : Little / Signed
  75. Codec ID                                 : A_PCM/INT/LIT
  76. Duration                                 : 2 h 3 min
  77. Bit rate mode                            : Constant
  78. Bit rate                                 : 1 536 kb/s
  79. Channel(s)                               : 2 channels
  80. Sampling rate                            : 48.0 kHz
  81. Frame rate                               : 30.000 FPS (1600 SPF)
  82. Bit depth                                : 16 bits
  83. Stream size                              : 1.33 GiB (5%)
  84. Title                                    : Robert.the.Bruce.2019.1080p.BluRay.REMUX.AVC.DTS-HD.MA.5.1-FGT
  85. Language                                 : English
  86. Default                                  : No
  87. Forced                                   : No

  88. Menu
  89. 00:00:00.000                             : en:Chapter 01
  90. 00:18:55.791                             : en:Chapter 02
  91. 00:31:47.833                             : en:Chapter 03
  92. 00:52:01.166                             : en:Chapter 04
  93. 01:13:24.416                             : en:Chapter 05
  94. 01:35:34.041                             : en:Chapter 06
复制代码

罗伯特·布鲁斯 Robert.the.Bruce.2019.1080p.BluRay.REMUX.AVC.DTS-HD.MA.5.1-FGT 29.00GB-2.png 罗伯特·布鲁斯 Robert.the.Bruce.2019.1080p.BluRay.REMUX.AVC.DTS-HD.MA.5.1-FGT 29.00GB-3.png 罗伯特·布鲁斯 Robert.the.Bruce.2019.1080p.BluRay.REMUX.AVC.DTS-HD.MA.5.1-FGT 29.00GB-4.png







VIP会员免费任意下载本站所有资源!---点击开通
回复

使用道具 举报

懒得打字嘛,点击右侧快捷回复 【右侧内容,后台自定义】
您需要登录后才可以回帖 登录 | 立即注册

本版积分规则

QQ|Archiver|手机版|小黑屋| 中国高清网 |网站地图 

GMT+8, 2019-11-15 20:16 , Processed in 0.243926 second(s), 37 queries .

Powered by HDchina X3.4

Copyright 2017-2019©HDchina.All right reserved

返回顶部 联系我们