查看: 41|回复: 0

[冒险片] 花生酱猎鹰/花生酱猎鹰的愿望 The.Peanut.Butter.Falcon.2019.1080p.BluRay.REMUX.AVC.DTS-HD.MA.5.1-FGT 18.08GB

[复制链接]

 成长值: 3210

级别:资源管理组

注册时间
2017-10-20
最后登录
2019-11-20
听众
1
收听
0
主题
87221
蓝光币
63022 枚
贡献
11580 点
发表于 2019-11-7 21:05:18 | 显示全部楼层 |阅读模式
210329srz57quei755rvcg.png

译  名 花生酱猎鹰 / 花生酱猎鹰的愿望(台)
片  名 The Peanut Butter Falcon
年  代 2019
产  地 美国
类  别 冒险
语  言 英语
上映日期 2019-03-09(西南偏南电影节) / 2019-08-09(美国)
IMDb评分  8.0/10 from 6896 users
IMDb链接  https://www.imdb.com/title/tt4364194
豆瓣评分 8.0/10 from 389 users
豆瓣链接 https://movie.douban.com/subject/27035542/
片  长 93分钟
导  演 泰勒·尼尔森 Tyler Nilson / 迈克·舒瓦茨 Mike Schwartz
编  剧 泰勒·尼尔森 Tyler Nilson / 迈克·舒瓦茨 Mike Schwartz
主  演 希亚·拉博夫 Shia LaBeouf
       达科塔·约翰逊 Dakota Johnson
       扎克·高察根 Zack Gottsagen
       约翰·浩克斯 John Hawkes
       托马斯·哈登·丘奇 Thomas Haden Church
       布鲁斯·邓恩 Bruce Dern
       乔·博恩瑟 Jon Bernthal
       米克·弗利 Mick Foley
       Yelawolf
       Jake Roberts
       Raquel Aurora
       Michael Berthold
       Deja Dee
       Karen B. Greer
       Noah Hein


标  签 美国 | 公路 | 笑剧 | 剧情 | 2019 | 励志 | 美国电影 | 自力

简  介  

  电影报告一个唐氏患儿Zak胡想成为一位摔跤手,是以逃离疗养院想去上体校,路遇一位在逃犯,这位逃犯成为了他的教练和洽友。此外来自疗养院的一位护工也加入了他们的旅程。
  1. Video
  2. ID                                       : 1
  3. Format                                   : AVC
  4. Format/Info                              : Advanced Video Codec
  5. Format profile                           : High@L4
  6. Format settings                          : CABAC / 4 Ref Frames
  7. Format settings, CABAC                   : Yes
  8. Format settings, Reference frames        : 4 frames
  9. Codec ID                                 : V_MPEG4/ISO/AVC
  10. Duration                                 : 1 h 36 min
  11. Bit rate mode                            : Variable
  12. Bit rate                                 : 23.0 Mb/s
  13. Maximum bit rate                         : 35.0 Mb/s
  14. Width                                    : 1 920 pixels
  15. Height                                   : 1 080 pixels
  16. Display aspect ratio                     : 16:9
  17. Frame rate mode                          : Constant
  18. Frame rate                               : 23.976 (24000/1001) FPS
  19. Standard                                 : NTSC
  20. Color space                              : YUV
  21. Chroma subsampling                       : 4:2:0
  22. Bit depth                                : 8 bits
  23. Scan type                                : Progressive
  24. Bits/(Pixel*Frame)                       : 0.463
  25. Stream size                              : 15.6 GiB (86%)
  26. Title                                    : The.Peanut.Butter.Falcon.2019.1080p.BluRay.REMUX.AVC.DTS-HD.MA.5.1-FGT
  27. Language                                 : English
  28. Default                                  : No
  29. Forced                                   : No
  30. Color range                              : Limited
  31. Color primaries                          : BT.709
  32. Transfer characteristics                 : BT.709
  33. Matrix coefficients                      : BT.709

  34. Audio
  35. ID                                       : 2
  36. Format                                   : DTS XLL
  37. Format/Info                              : Digital Theater Systems
  38. Commercial name                          : DTS-HD Master Audio
  39. Codec ID                                 : A_DTS
  40. Duration                                 : 1 h 36 min
  41. Bit rate mode                            : Variable
  42. Bit rate                                 : 3 656 kb/s
  43. Channel(s)                               : 6 channels
  44. Channel layout                           : C L R Ls Rs LFE
  45. Sampling rate                            : 48.0 kHz
  46. Frame rate                               : 93.750 FPS (512 SPF)
  47. Bit depth                                : 24 bits
  48. Compression mode                         : Lossless
  49. Stream size                              : 2.48 GiB (14%)
  50. Title                                    : The.Peanut.Butter.Falcon.2019.1080p.BluRay.REMUX.AVC.DTS-HD.MA.5.1-FGT
  51. Language                                 : English
  52. Default                                  : Yes
  53. Forced                                   : No

  54. Text #1
  55. ID                                       : 3
  56. Format                                   : UTF-8
  57. Codec ID                                 : S_TEXT/UTF8
  58. Codec ID/Info                            : UTF-8 Plain Text
  59. Duration                                 : 1 h 35 min
  60. Bit rate                                 : 67 b/s
  61. Count of elements                        : 1549
  62. Stream size                              : 47.0 KiB (0%)
  63. Title                                    : English-srt
  64. Language                                 : English
  65. Default                                  : Yes
  66. Forced                                   : No

  67. Text #2
  68. ID                                       : 4
  69. Format                                   : PGS
  70. Muxing mode                              : zlib
  71. Codec ID                                 : S_HDMV/PGS
  72. Codec ID/Info                            : Picture based subtitle format used on BDs/HD-DVDs
  73. Duration                                 : 1 h 34 min
  74. Bit rate                                 : 46.3 kb/s
  75. Count of elements                        : 3278
  76. Stream size                              : 31.3 MiB (0%)
  77. Title                                    : English-PGS
  78. Language                                 : English
  79. Default                                  : No
  80. Forced                                   : No

  81. Text #3
  82. ID                                       : 5
  83. Format                                   : PGS
  84. Muxing mode                              : zlib
  85. Codec ID                                 : S_HDMV/PGS
  86. Codec ID/Info                            : Picture based subtitle format used on BDs/HD-DVDs
  87. Duration                                 : 1 h 36 min
  88. Bit rate                                 : 44.4 kb/s
  89. Count of elements                        : 3506
  90. Stream size                              : 30.5 MiB (0%)
  91. Title                                    : Spanish-PGS
  92. Language                                 : Spanish
  93. Default                                  : No
  94. Forced                                   : No

  95. Menu
  96. 00:00:00.000                             : en:Chapter 01
  97. 00:08:14.243                             : en:Chapter 02
  98. 00:17:54.073                             : en:Chapter 03
  99. 00:25:26.191                             : en:Chapter 04
  100. 00:32:30.949                             : en:Chapter 05
  101. 00:42:37.555                             : en:Chapter 06
  102. 00:50:34.906                             : en:Chapter 07
  103. 00:58:02.270                             : en:Chapter 08
  104. 01:04:19.856                             : en:Chapter 09
  105. 01:13:20.396                             : en:Chapter 10
  106. 01:21:12.617                             : en:Chapter 11
  107. 01:31:09.464                             : en:Chapter 12
复制代码

花生酱猎鹰/花生酱猎鹰的愿望 The.Peanut.Butter.Falcon.2019.1080p.BluRay.REMUX.AVC.DTS-HD.MA.5.1-FGT 18.08GB-2.png 花生酱猎鹰/花生酱猎鹰的愿望 The.Peanut.Butter.Falcon.2019.1080p.BluRay.REMUX.AVC.DTS-HD.MA.5.1-FGT 18.08GB-3.png 花生酱猎鹰/花生酱猎鹰的愿望 The.Peanut.Butter.Falcon.2019.1080p.BluRay.REMUX.AVC.DTS-HD.MA.5.1-FGT 18.08GB-4.png







VIP会员免费任意下载本站所有资源!---点击开通
回复

使用道具 举报

懒得打字嘛,点击右侧快捷回复 【右侧内容,后台自定义】
您需要登录后才可以回帖 登录 | 立即注册

本版积分规则

QQ|Archiver|手机版|小黑屋| 中国高清网 |网站地图

GMT+8, 2019-11-20 09:54 , Processed in 0.268482 second(s), 37 queries .

Powered by HDchina X3.4

Copyright 2017-2019©HDchina.All right reserved

返回顶部 联系我们