查看: 29|回复: 1

[剧情片] 十只独木舟 Ten.Canoes.2006.iNTERNAL.720p.BluRay.x264-REGRET 4.38GB

[复制链接]

 成长值: 3160

级别:资源管理组

注册时间
2017-10-20
最后登录
2019-11-15
听众
1
收听
0
主题
86815
蓝光币
61954 枚
贡献
11173 点
发表于 2019-11-7 20:39:56 | 显示全部楼层 |阅读模式
十只独木舟 Ten.Canoes.2006.iNTERNAL.720p.BluRay.x264-REGRET 4.38GB-1.png
3 N% C$ l1 v- k; {6 D: q* s$ ?. q4 Z9 Y2 D
译  名 十只独木舟/ B9 s. @( _( x. ]4 \! a
片  名 Ten Canoes9 I) v/ l3 E6 d/ x( ^
年  代 2006
9 ^6 f: E  T1 I4 w产  地 澳大利亚
4 T3 W- ~: Y4 Y, b' Q6 F类  别 剧情 / 笑剧 / 冒险" [9 N3 C7 B9 h; Y* ~0 C
语  言 英语 / 土著语* y3 \( n  f+ |- P
上映日期 2006-06-01% E+ |3 m2 y8 K9 t2 r2 Z
IMDb评分  7.0/10 from 4216 users
) U3 v1 Q5 b3 XIMDb链接  https://www.imdb.com/title/tt0466399- g; `$ _- @7 t* K
豆瓣评分 6.8/10 from 272 users0 s0 d% g% e0 a$ C6 |
豆瓣链接 https://movie.douban.com/subject/1790235/6 @9 L& R3 E( E
片  长 Australia: 90 分钟. r# ^! h+ @, J' g+ [9 u
导  演 Peter Djigirr / Rolf de Heer& {. }" Z( J/ q1 K" H# l+ v0 P' t
编  剧 Rolf de Heer
8 y: k( k. [: e# c3 l: h: E3 I5 o主  演 Richard Birrinbirrin; \# g( G9 C4 {
       Johnny Buniyira/ z( o: A: Y' E
       Peter Djigirr& v$ r1 Z8 \0 t0 x5 Y- h# q* D
       Crusoe Kurddal2 K- J! g6 a/ G! n7 z

9 Q! c5 S2 |' q9 Q3 Z9 H# m
( a$ L: a$ @  c3 M9 k1 r标  签 澳大利亚 | 记载片 | 土著人 | 2006 | 澳大利亚电影 | 剧情 | 澳大利亚影片 | 新锐. m6 O6 I: P1 T- b

% `) K8 `' @1 Y- s简  介  + Y+ }9 W& _3 A# B1 U5 r. R1 F. M6 n
0 j& r2 p6 R' H+ p
  Ten canoes, three wives, one hundred and fifty spears...trouble
& Q* R: J' x0 _' |6 ^" l8 A5 w. F$ d0 f
获奖情况  9 n& A5 m* x0 J8 K; g

" B& b8 E5 W# L+ w' R2 v9 t) Y  第59届戛纳电影节(2006)
# b/ i& E6 s* T% o+ a  一种关注单元 评审团出格奖 洛夫·德·希尔; ?* q. K& T8 n  G/ k, k. L3 H! T
  1. Video1 v: ]2 l1 r- v0 K$ O" {7 l
  2. ID                                       : 1
    ( d% h: e! n' |) p1 T: P2 j( ]
  3. Format                                   : AVC
    # _8 h9 I- A+ ]8 f, n
  4. Format/Info                              : Advanced Video Codec
    . z+ b% [0 s; X0 Z; i
  5. Format profile                           : High@L4
    0 J4 q+ n- k, }
  6. Format settings                          : CABAC / 5 Ref Frames/ N5 Z" n+ y! ~
  7. Format settings, CABAC                   : Yes
    ! a+ d# \6 F7 Q
  8. Format settings, Reference frames        : 5 frames
    7 O2 A: h. D: H' ]+ d8 c, n1 q$ S
  9. Codec ID                                 : V_MPEG4/ISO/AVC
    6 n/ C3 t* `9 y8 c
  10. Duration                                 : 1 h 31 min. b2 j' N  _7 P
  11. Bit rate                                 : 4 800 kb/s
    ( H$ c$ ]) B2 c! ?
  12. Width                                    : 1 280 pixels
    3 }: H5 b  ^# s& R# O
  13. Height                                   : 720 pixels
    % ?3 G7 x# A6 h# @6 p% ]4 Y$ d; C
  14. Display aspect ratio                     : 16:9
    + Q2 T: W+ W' j
  15. Frame rate mode                          : Constant
    $ [9 w; u& \3 ^( ^, @7 y; O
  16. Frame rate                               : 23.976 (24000/1001) FPS1 d1 k" P" g; L( f& j4 v) r
  17. Color space                              : YUV. C) }) [7 y( c' K
  18. Chroma subsampling                       : 4:2:0
      n, m) @$ x- Y# H
  19. Bit depth                                : 8 bits+ _* L( V. U5 \3 Y' b: j# T9 F9 N, |) |1 J
  20. Scan type                                : Progressive7 ~, E  k5 t& A4 X+ i; s
  21. Bits/(Pixel*Frame)                       : 0.217
    # j* I  n2 Z  P
  22. Stream size                              : 3.06 GiB (70%)2 i. ?3 x5 J7 Q: `/ I
  23. Writing library                          : x264 core 158 r2988 7817004
    1 s. D1 }% A- Z+ r
  24. Encoding settings                        : cabac=1 / ref=5 / deblock=1:-3:-3 / analyse=0x3:0x133 / me=umh / subme=9 / psy=1 / psy_rd=1.00:0.00 / mixed_ref=1 / me_range=16 / chroma_me=1 / trellis=2 / 8x8dct=1 / cqm=0 / deadzone=21,11 / fast_pskip=0 / chroma_qp_offset=-2 / threads=22 / lookahead_threads=1 / sliced_threads=0 / nr=0 / decimate=1 / interlaced=0 / bluray_compat=0 / constrained_intra=0 / bframes=3 / b_pyramid=2 / b_adapt=1 / b_bias=0 / direct=3 / weightb=1 / open_gop=0 / weightp=2 / keyint=240 / keyint_min=24 / scenecut=40 / intra_refresh=0 / rc_lookahead=50 / rc=2pass / mbtree=1 / bitrate=4800 / ratetol=1.0 / qcomp=0.60 / qpmin=0 / qpmax=69 / qpstep=4 / cplxblur=20.0 / qblur=0.5 / ip_ratio=1.40 / aq=1:1.007 A" z% Z1 S& l+ E& o1 r9 ?
  25. Language                                 : English: w8 A$ S! h  q. P9 V# b& }& C5 K2 b
  26. Default                                  : Yes
    5 b- i0 q  \% P- W; X
  27. Forced                                   : No& a, S$ @8 _% w/ W1 f7 n

  28. ' m$ ~- j& E# |0 J0 H0 Q
  29. Audio #1
    1 e; f6 N3 r8 r1 m( ]) b+ q2 K
  30. ID                                       : 2
    * |( \0 C- b1 U% V! K/ m8 \8 I/ s
  31. Format                                   : FLAC' u7 i5 t' e" E: Y. p
  32. Format/Info                              : Free Lossless Audio Codec
    ) F4 C0 P6 K# \6 W/ N: O# a
  33. Codec ID                                 : A_FLAC
    6 ~6 ^# s7 E, U& w& D
  34. Duration                                 : 1 h 31 min; E& q8 h: K% X" ^: ^/ ]: q9 w
  35. Bit rate mode                            : Variable
    : \$ H5 J0 v" v7 w5 f) |; T* A: m
  36. Bit rate                                 : 1 004 kb/s$ w, L9 n& X7 y1 h; r. m
  37. Channel(s)                               : 6 channels1 L/ I, t' ]4 H5 j2 f, [% u
  38. Channel layout                           : L R C LFE Ls Rs( k* S! }! w7 C& b* j# |
  39. Sampling rate                            : 48.0 kHz
    5 k4 K) e  S. Q$ \, v
  40. Frame rate                               : 11.719 FPS (4096 SPF)
    7 D- t; b2 J  P& O$ r
  41. Bit depth                                : 16 bits
    6 c+ ?- r  V& B, |# @; s/ p. E
  42. Compression mode                         : Lossless
    7 L" k3 c! L* `$ d3 r/ C
  43. Stream size                              : 657 MiB (15%)
      H/ [" M. o: R% R# H
  44. Writing library                          : libFLAC 1.2.1 (UTC 2007-09-17)0 [1 Y6 b9 e" y1 F$ J
  45. Language                                 : English
    : d6 }0 t; \3 I( ], Q9 M
  46. Default                                  : Yes" R# K8 J3 [# Y9 n" u, u6 g
  47. Forced                                   : No2 b* l. ~9 Z- b8 B) s

  48. 5 \' z. L4 w3 O% V
  49. Audio #2$ m0 f: A* Z. K5 z3 ?6 c7 n8 I' D
  50. ID                                       : 3- e& t  i- s% @! `. z
  51. Format                                   : FLAC
    4 B# i  d  U- ?) F. A2 |2 p" C
  52. Format/Info                              : Free Lossless Audio Codec9 U: L6 J/ @8 z9 E
  53. Codec ID                                 : A_FLAC0 s$ E) Y" U# t6 x4 l$ v  v7 [
  54. Duration                                 : 1 h 31 min5 x/ g- z9 r6 ?0 i1 j
  55. Bit rate mode                            : Variable
    ( r; d& ]$ x" d
  56. Bit rate                                 : 1 045 kb/s
    8 h& j) ~8 h- w# u9 ~& q  f
  57. Channel(s)                               : 6 channels
    9 a0 h% \4 x$ ]5 k6 Z
  58. Channel layout                           : L R C LFE Ls Rs' N5 }! `6 G& ~2 ]
  59. Sampling rate                            : 48.0 kHz
    + `; g" d( L7 A
  60. Frame rate                               : 11.719 FPS (4096 SPF)
    ; h& G0 d- Y) q# {/ U% n
  61. Bit depth                                : 16 bits; V4 m1 m) ^  [3 I/ {( L* @9 G0 B
  62. Compression mode                         : Lossless
    % O8 }  G" A" N) O( S2 I0 {3 v8 D/ }
  63. Stream size                              : 683 MiB (15%)% O+ V8 r# v* j5 w  E; W
  64. Title                                    : Aboriginal/ s( j  v9 z7 t3 }: q' s9 O
  65. Writing library                          : libFLAC 1.2.1 (UTC 2007-09-17)* k' O6 m  {7 o' C* w
  66. Default                                  : No: w; W/ m/ n  S+ j* Q* m
  67. Forced                                   : No& }5 y9 w9 L4 ]* V  \0 c
  68. ' A3 j) U+ K. M
  69. Text #17 [: E2 }: D* S3 h: V! y
  70. ID                                       : 4- X' t' k/ r! F  R7 X9 i. D4 }$ k; c
  71. Format                                   : UTF-8
    8 K$ e# ?3 Q! s5 {
  72. Codec ID                                 : S_TEXT/UTF8
    9 E" i) k3 J- ]* T& X% M- ^
  73. Codec ID/Info                            : UTF-8 Plain Text
    6 V- @5 I) B, B
  74. Duration                                 : 1 h 20 min, {: O' d1 D& c8 m; q0 E2 \, l
  75. Bit rate                                 : 17 b/s
    6 ]+ n" z, K' Z2 D
  76. Count of elements                        : 440+ ?( w  k1 _7 o: a6 M; R
  77. Stream size                              : 10.4 KiB (0%)
    / H1 N  z) e/ ?- \6 h" W' s
  78. Title                                    : English Forced8 z9 p6 H- X4 ^9 [# q
  79. Language                                 : English% Q) a& q0 U! A) i* K7 w! M
  80. Default                                  : Yes- Q) m; X8 `& l4 \) C' v
  81. Forced                                   : Yes& @7 n- h% Y! m# u2 Z
  82. 2 T8 M9 I4 ~  L0 D+ v
  83. Text #2
    " P. L; H0 q6 v' w2 y) j, M% @8 [& o
  84. ID                                       : 5+ A) w# U) L8 F; t' `
  85. Format                                   : UTF-89 d) P: t) k5 i. s
  86. Codec ID                                 : S_TEXT/UTF87 p+ k) U6 M! N* `, J
  87. Codec ID/Info                            : UTF-8 Plain Text
    % l. y6 ]7 a% t; ?; x" _# n: m
  88. Duration                                 : 1 h 27 min# ]' d7 G! C9 S6 @& H, T8 r+ j
  89. Bit rate                                 : 52 b/s  _( Q1 Y5 [( t
  90. Count of elements                        : 898  F# [+ ?& |9 a  e: g# {
  91. Stream size                              : 33.2 KiB (0%)" T/ m# R7 c; \6 B
  92. Title                                    : English0 G5 c) {, D: u0 j
  93. Language                                 : English
    + M& k/ O- h/ T( N! G
  94. Default                                  : No
    / y  u! S0 Z9 b$ Z
  95. Forced                                   : No9 {" z% S' y) o# Y

  96. 5 I/ S9 m, Q$ L% v4 U
  97. Menu& A9 C5 ?7 v; f% k$ j
  98. 00:00:00.000                             : en:00:00:00.0009 b; r  ?4 y9 s2 e9 d
  99. 00:09:56.429                             : en:00:09:56.429
    8 N+ J2 u8 j4 D
  100. 00:20:02.243                             : en:00:20:02.243. i' i+ C/ J. S9 N; Z2 y# ]
  101. 00:26:44.728                             : en:00:26:44.728
    6 m) l( W( j& Q
  102. 00:33:37.641                             : en:00:33:37.641
    - Q, }5 C* N# A" m6 _
  103. 00:40:08.656                             : en:00:40:08.656
    $ I8 w( J3 f- k
  104. 00:46:35.501                             : en:00:46:35.501/ r6 H2 J$ q$ N8 U, \" p
  105. 00:56:02.734                             : en:00:56:02.734: d6 z0 r8 k! Q" I
  106. 01:05:29.968                             : en:01:05:29.968
    8 n1 F: f  B! D
  107. 01:12:49.991                             : en:01:12:49.991
    # W1 I- @4 G; E5 u% R" X. Z. S
  108. 01:22:17.224                             : en:01:22:17.224
    * _' h0 W' B! q- @
  109. 01:27:05.011                             : en:01:27:05.011
复制代码

2 Y3 x5 P" t  [( @ 十只独木舟 Ten.Canoes.2006.iNTERNAL.720p.BluRay.x264-REGRET 4.38GB-2.png 6 T- n! u6 T1 s. C0 r

3 S, l. L- U+ H
2 H# U) `% q# w4 V# C2 @# C
4 v# x/ Y+ w' _, H& J, F
& j  I9 |% x3 G. ^6 P% `5 D' q1 p5 h6 ~* }4 b
) g0 f6 g0 V! _. c5 F

) Q! t2 X% S9 n
VIP会员免费任意下载本站所有资源!---点击开通
回复

使用道具 举报

级别:一举成名 Lv.7

注册时间
2019-4-24
最后登录
2019-11-14
听众
13
收听
0
主题
0
蓝光币
194 枚
贡献
0 点
发表于 7 天前 | 显示全部楼层
楼主发贴辛苦了,谢谢楼主分享!我觉得中国高清电影网是注册对了!
VIP会员免费任意下载本站所有资源!---点击开通
回复

使用道具 举报

懒得打字嘛,点击右侧快捷回复 【右侧内容,后台自定义】
您需要登录后才可以回帖 登录 | 立即注册

本版积分规则

QQ|Archiver|手机版|小黑屋| 中国高清网 |网站地图 

GMT+8, 2019-11-15 21:43 , Processed in 0.266275 second(s), 37 queries .

Powered by HDchina X3.4

Copyright 2017-2019©HDchina.All right reserved

返回顶部 联系我们