查看: 151|回复: 2

[剧情片] 深夜秀/夜深时 Late.Night.2019.720p.BluRay.x264.DTS-FGT 4.98GB

[复制链接]

 成长值: 5490

级别:资源管理组

注册时间
2017-10-20
最后登录
2020-5-30
听众
1
收听
0
主题
96275
蓝光币
153255 枚
贡献
20653 点
发表于 2019-11-7 11:36:20 | 显示全部楼层 |阅读模式
深夜秀/夜深时 Late.Night.2019.720p.BluRay.x264.DTS-FGT 4.98GB-1.png $ j* `* G  O2 _5 S4 [6 T9 R
, u9 h* [1 n9 B/ E( o
译  名 深夜秀 / 夜深时6 A& L) c& g9 w
片  名 Late Night7 O  R, A, }* J
年  代 2019& r% H$ \# V6 `) n# T
产  地 美国
$ {1 k3 y! {2 ^& v# O类  别 剧情 / 笑剧
4 `) F( N6 ~  w语  言 英语- Z2 C& w: s  R0 T7 g/ y
上映日期 2019-01-25(圣丹斯电影节) / 2019-06-07(美国)
6 `! P) F8 g3 M# f2 c  d9 F) j' k# uIMDb评分  6.5/10 from 4780 users
7 `1 B" c& Q! a2 b3 s/ hIMDb链接  http://www.imdb.com/title/tt6107548: d' e" X2 }8 \2 y  T
豆瓣评分 7.0/10 from 265 users
0 ?$ n% s/ r9 y( O, d, v& M! w. X9 o豆瓣链接 https://movie.douban.com/subject/27109401/
/ T( o! \2 z0 l& t% ]' l片  长 102分钟(圣丹斯电影节)4 w/ S0 h1 l# {
导  演 尼萨·加纳特 Nisha Ganatra
' g, {3 K" N3 |& E4 O/ @编  剧 敏迪·卡灵 Mindy Kaling
3 h4 v# n1 u7 W/ L( p2 e主  演 艾玛·汤普森 Emma Thompson* \& d! }  I0 N: Z7 k8 u
       敏迪·卡灵 Mindy Kaling5 u3 {1 r5 K9 i" z& B$ X
       约翰·利思戈 John Lithgow$ I3 ^! e% d& W0 k% g9 S
       休·丹西 Hugh Dancy* u) {9 Q6 ^7 Z+ W
       伊克·巴里霍尔兹 Ike Barinholtz
: ^! j3 P0 M' D7 s- X       梅歌林·艾奇坤沃克 Megalyn Echikunwoke: u& N8 c; J4 z, u
       艾米·莱安 Amy Ryan1 |! B* u, m6 n- x1 h6 k: J
       马克斯·凯塞拉 Max Casella
: U  T$ {- h2 j- |3 O       保罗·沃尔特·豪泽 Paul Walter Hauser
- O/ _) T% M! t; H       瑞德·斯科特 Reid Scott5 ^/ C' U' E" v* m
       丹尼斯·欧哈拉 Denis O'Hare+ H4 a( O- {1 L/ g. d
       费斯·洛根 Faith Logan
  M1 m4 U8 t' `4 b9 `+ z2 K# H       约翰·厄尔利 John Early9 H4 c9 |+ k- C3 R7 r: H. D+ t
       桃乐丝·麦卡锡 Doris McCarthy4 N) L: b# n5 x9 h9 H+ W( [  z
       卢克·斯拉特里 Luke Slattery
0 ^4 J8 W8 a/ f       格里高利·迈克尔 Gregory Mikell
5 \5 W2 w; `1 c- n% F& T- ?       Rupak Ginn0 ^* R$ w. S/ h. m% w& j6 v$ P0 j
  d/ m4 `+ l  v/ |/ L, f

& C1 S- ^4 h* Q* p0 x4 N" X标  签 笑剧 | 女性 | EmmaThompson | 美国 | 2019 | 脱口秀 | 电影 | 艾玛·汤普森% F- M7 x& ~: R8 k( Z# T$ G5 o

$ F1 h1 h  S. b, ~简  介  
( [* Q4 q3 V- y( E' C" p' t# F% `; K  c1 I& G: F- Y/ Z9 ]& V
  艾玛·汤普森、敏迪·卡灵将参演30WEST、FilmNation打造的笑剧[夜深时](Late Night,暂译)。敏迪·卡灵还操刀剧本,尼萨·加纳特(《高玩救未来》)执导。报告一个行将落空工作的深夜脱口秀主持人(汤普森饰),当她招聘女性作家(卡灵饰)时,她的工作和生活似乎有了起色。该片将于四月展开拍摄。
. V$ B9 [! V3 Z  d% k" ]5 J5 _
  1. Video
    7 j7 R! n  Y; O
  2. ID                                       : 1
    : S" h& C. M. r2 |' O6 T
  3. Format                                   : AVC4 R1 c! K2 \/ L. M
  4. Format/Info                              : Advanced Video Codec( y& Y2 u( Q1 G! _- M9 K
  5. Format profile                           : High@L49 [& G7 f& Y3 ]- ]- _& D
  6. Format settings                          : CABAC / 4 Ref Frames
    2 K- @/ H. o! D9 Y) r. j
  7. Format settings, CABAC                   : Yes/ g9 j( U% l2 v0 U8 k
  8. Format settings, Reference frames        : 4 frames& e1 v% M* U& Q0 I  F
  9. Codec ID                                 : V_MPEG4/ISO/AVC( V2 t7 a4 y& y- t- Y
  10. Duration                                 : 1 h 41 min/ h4 Q8 u  l2 y3 Y! k
  11. Bit rate                                 : 5 500 kb/s- n* w! j" _3 V7 }( Q2 h
  12. Width                                    : 1 280 pixels
    ) n& n. ~. G: }, }3 X
  13. Height                                   : 690 pixels
    & L# G+ h5 u+ h, H- s% U8 \
  14. Display aspect ratio                     : 1.85:1( u8 U. O4 v% ~7 B" T0 [1 _7 E" ^
  15. Original display aspect ratio            : 1.85:1
    " S& @2 _  ]+ Z
  16. Frame rate mode                          : Constant
    ; b, n. {; K  h
  17. Frame rate                               : 23.976 (24000/1001) FPS
    8 @8 y2 K' Q6 u+ J9 e( m
  18. Color space                              : YUV
    9 J( a4 }1 j( I* b6 [% f
  19. Chroma subsampling                       : 4:2:0
    0 G* [$ o' }/ t
  20. Bit depth                                : 8 bits, O! J+ H8 T' S
  21. Scan type                                : Progressive: T6 A) O" j* z0 _$ [1 `
  22. Bits/(Pixel*Frame)                       : 0.260
    6 V. p& u; B- f
  23. Stream size                              : 3.91 GiB (78%)
    5 a. m3 y+ h9 }6 e
  24. Title                                    : Late.Night.2019.720p.BluRay.x264.DTS-FGT
    ; i- w4 k3 W5 J: Q$ Q
  25. Writing library                          : x264 core 148 r2795M aaa9aa8- i- f7 ^  ]9 d5 ?
  26. Encoding settings                        : cabac=1 / ref=4 / deblock=1:-2:-2 / analyse=0x3:0x113 / me=umh / subme=9 / psy=1 / psy_rd=1.00:0.15 / mixed_ref=1 / me_range=16 / chroma_me=1 / trellis=2 / 8x8dct=1 / cqm=0 / deadzone=21,11 / fast_pskip=1 / chroma_qp_offset=-3 / threads=24 / lookahead_threads=3 / sliced_threads=0 / nr=0 / decimate=1 / interlaced=0 / bluray_compat=0 / constrained_intra=0 / bframes=3 / b_pyramid=2 / b_adapt=1 / b_bias=0 / direct=3 / weightb=1 / open_gop=0 / weightp=2 / keyint=250 / keyint_min=25 / scenecut=40 / intra_refresh=0 / rc_lookahead=50 / rc=2pass / mbtree=1 / bitrate=5500 / ratetol=1.0 / qcomp=0.60 / qpmin=0 / qpmax=69 / qpstep=4 / cplxblur=20.0 / qblur=0.5 / vbv_maxrate=31250 / vbv_bufsize=31250 / nal_hrd=none / filler=0 / ip_ratio=1.40 / aq=1:1.00
    * P9 u' u2 K$ Y7 X* F6 J1 `. N
  27. Language                                 : English
    2 t3 [+ e7 }. Z0 k+ U( B: I/ G( \
  28. Default                                  : Yes* n9 A  G2 H5 [2 l* e; n
  29. Forced                                   : No
    6 e5 m( k. A& y) U* U

  30. " H5 I2 D+ z! Q4 Z+ o; M. m& B
  31. Audio2 \+ J" @- @5 z* |  ]: z$ Z% S
  32. ID                                       : 2
    - H+ J1 {7 B. ^+ \$ c
  33. Format                                   : DTS0 U& _1 ]+ J3 j& n3 _
  34. Format/Info                              : Digital Theater Systems
    ( H) i+ W2 i1 T% u
  35. Codec ID                                 : A_DTS# \8 u: ^2 G  X7 f" N3 ~$ b
  36. Duration                                 : 1 h 41 min
    # y, B& ~6 v6 G
  37. Bit rate mode                            : Constant5 t# _4 [$ ~0 H1 _* ]$ l
  38. Bit rate                                 : 1 509 kb/s( u% M1 [8 @! D$ b) }
  39. Channel(s)                               : 6 channels! w& S3 w9 v- O9 B/ \( N
  40. Channel layout                           : C L R Ls Rs LFE1 Y3 T* k* H7 D
  41. Sampling rate                            : 48.0 kHz, q+ A% N: |( E5 ~. x# `
  42. Frame rate                               : 93.750 FPS (512 SPF)( M$ I, K, y) G* Z; G* J
  43. Bit depth                                : 16 bits
      y' W. U* f3 N
  44. Compression mode                         : Lossy
    / @, G  Q9 w4 m# p- Z( ]: @) ]
  45. Stream size                              : 1.07 GiB (22%)) V; E: t: \. b
  46. Title                                    : Late.Night.2019.720p.BluRay.x264.DTS-FGT
    : `' C9 e! R9 l3 H! j4 R
  47. Language                                 : English
    4 Y& L( p! F6 h! I- q- S. \
  48. Default                                  : Yes
    / d* y% Z' f# ?% t2 s9 L4 P9 u
  49. Forced                                   : No* u+ f: f: V1 r, S0 H/ k

  50. & I* J! O0 H( B; P. E
  51. Text5 H) L; J. R' q( ^
  52. ID                                       : 34 ^5 J  D. o0 {& B& ]) l
  53. Format                                   : UTF-8
    - Q6 }( ~: J/ e) p/ \8 @$ d' i
  54. Codec ID                                 : S_TEXT/UTF87 Y1 j8 H- K& _" H1 H& b
  55. Codec ID/Info                            : UTF-8 Plain Text, R' {5 N% t+ {, a3 K; ~& u' J
  56. Duration                                 : 1 h 39 min/ e" s6 A0 a/ L3 B4 d( G# x0 {
  57. Bit rate                                 : 104 b/s
    : {/ K9 P! V; a" q
  58. Count of elements                        : 21344 _8 M% G5 @) V  a. ?: X5 A7 b/ D
  59. Stream size                              : 76.1 KiB (0%)& Z9 D  b# Y4 V* X  J
  60. Language                                 : English, p* Y! E8 R0 F% b0 D
  61. Default                                  : Yes$ ^. o$ y0 f! h$ f6 f) {, ^
  62. Forced                                   : No9 S; W6 c* n9 w' w; r
  63. 1 w$ H1 K) f* X4 f, o" L4 l
  64. Menu
    & D- d; T, @0 x/ L% `, L# {; T
  65. 00:00:00.000                             : en:Chapter 1
    . f5 W, {3 l9 t- l, ]$ {
  66. 00:09:51.716                             : en:Chapter 2
    + a8 s& S# ~# w/ {' J. h! }  w
  67. 00:16:43.961                             : en:Chapter 38 o, P- d. g: H% w9 x2 `* K' _
  68. 00:24:45.692                             : en:Chapter 4! t( B7 \; {7 h
  69. 00:33:04.649                             : en:Chapter 56 H9 J! P- A2 q7 D, h; e$ i
  70. 00:40:45.568                             : en:Chapter 6$ ~, g- R5 c8 i3 [. ?
  71. 00:51:39.513                             : en:Chapter 7
    # |8 o+ K4 u: a0 P  m
  72. 01:02:18.943                             : en:Chapter 8
    + z  J: i& L! U" f3 E
  73. 01:10:30.226                             : en:Chapter 9  Q2 D3 S0 R, X$ d" v) V
  74. 01:19:15.959                             : en:Chapter 10& N( O2 q9 M/ q  j4 T1 b% _
  75. 01:26:09.789                             : en:Chapter 11
    ; e+ Z/ y' T5 a. @3 [
  76. 01:36:31.202                             : en:Chapter 12
复制代码
" v$ @: _; G( _7 b1 e0 D
深夜秀/夜深时 Late.Night.2019.720p.BluRay.x264.DTS-FGT 4.98GB-2.png 深夜秀/夜深时 Late.Night.2019.720p.BluRay.x264.DTS-FGT 4.98GB-3.png 深夜秀/夜深时 Late.Night.2019.720p.BluRay.x264.DTS-FGT 4.98GB-4.png 4 c/ u' p  n8 n1 T5 d' q

5 t( }; f1 s5 C  V" V
8 z9 J7 O) x  m' t% w# K6 W% W4 m# z$ A% {

+ o2 V# ~$ U/ O" b0 t( I/ q. N2 K4 u( x' s# j+ N: _
# y& C: @5 w* _

0 C" f$ X# R$ [5 z5 r+ K
回复

使用道具 举报

级别:功成名就 Lv.9

注册时间
2019-4-24
最后登录
2020-5-25
听众
14
收听
0
主题
0
蓝光币
539 枚
贡献
0 点
发表于 2019-11-8 10:52:17 | 显示全部楼层
楼主发贴辛苦了,谢谢楼主分享!我觉得中国高清电影网是注册对了!
回复

使用道具 举报

级别:群众演员 Lv.3

注册时间
2019-8-11
最后登录
2020-5-29
听众
2
收听
0
主题
0
蓝光币
161 枚
贡献
0 点
发表于 2019-11-18 23:40:02 | 显示全部楼层
楼主发贴辛苦了,谢谢楼主分享!我觉得中国高清电影网是注册对了!
回复

使用道具 举报

懒得打字嘛,点击右侧快捷回复 【右侧内容,后台自定义】
您需要登录后才可以回帖 登录 | 立即注册

本版积分规则

Archiver|手机版|小黑屋| 中国高清网 ( ICP备17007870号-2 ) |网站地图 

GMT+8, 2020-5-31 14:08 , Processed in 0.162892 second(s), 38 queries .

Powered by HDchina X3.4

Copyright 2017-2019©HDchina.All right reserved

返回顶部 联系我们