查看: 50|回复: 2

[历史片] 罗伯特·布鲁斯 Robert.the.Bruce.2019.720p.BluRay.x264-EiDER 5.46GB

[复制链接]

 成长值: 3210

级别:资源管理组

注册时间
2017-10-20
最后登录
2019-11-20
听众
1
收听
0
主题
87221
蓝光币
63030 枚
贡献
11580 点
发表于 2019-11-6 15:37:36 | 显示全部楼层 |阅读模式
罗伯特·布鲁斯 Robert.the.Bruce.2019.720p.BluRay.x264-EiDER 5.46GB-1.png
5 B7 H, W5 D) G! V0 {( H5 b
5 p) J6 m$ n' t7 r+ D3 F译  名 罗伯特·布鲁斯+ ]+ r/ k1 R* ]
片  名 Robert the Bruce
$ ]4 b5 l& x- p; Y6 e: V* |+ T年  代 2019
  A& g0 {- u! k7 S产  地 美国5 u2 s: ~& b+ I- s* S
类  别 历史
7 V5 ?: a* m- M* \  _8 ^% j语  言 英语
9 t3 V2 S8 a2 P. {# r上映日期 2019-06-28(英国)
+ v; x! j0 f  o* U, D, MIMDb评分  5.4/10 from 470 users8 d% p7 ?+ h; ~7 f' ]
IMDb链接  https://www.imdb.com/title/tt8000908
0 @1 l  @, o' @7 N豆瓣评分 0/10 from 0 users3 Z* V1 J7 P8 Z, C3 U. @* x
豆瓣链接 https://movie.douban.com/subject/30199661/. p1 I# J. l1 s3 I! \, b7 m& `6 q
片  长 124分钟: ?3 b7 A' c/ u& Z! ?; t- \
导  演 理查德·格雷 Richard Gray
  p5 S4 W) p( s8 b主  演 艾玛·肯尼 Emma Kenney3 n- w+ d/ D" P( ]0 P( Q* O7 O
       扎克·麦克格温 Zach McGowan' K4 {% ?$ ~5 r6 r. _
       杰瑞德·哈里斯 Jared Harris- X/ T% w5 Q* Z. ]! x8 F1 {4 Z6 H
       派屈克·福吉特 Patrick Fugit
: E0 S2 f4 J; j# z& R$ E       凯文·麦克纳利 Kevin McNally  c8 V4 G7 p* z' v0 d! i* s+ O
       安娜·哈彻森 Anna Hutchison2 [# @. C( }; P& C5 V' @( ?
       梅罗拉·沃特斯 Melora Walters
! Y7 ?0 d% d+ h4 E       特丽莎·贝特曼 Talitha Bateman. U* R3 O- \( _! t" s' Z" Q( O
       安古斯·麦克菲登 Angus Macfadyen& L) M" _& s. O0 \
       Mhairi Calvey7 n% n7 `: T+ T0 {
       加布里埃尔·贝特曼 Gabriel Bateman$ U2 K7 Q, n1 i! n- }$ U, @
       迪尔梅德·默塔 Diarmaid Murtagh
2 v4 K. w4 _. x, b& b( G       沙恩·科费 Shane Coffey
7 V8 h* n$ R, M% n       Anthony J. Sharpe
" k( a2 ^6 E$ y/ J  r& _       Gianni Capaldi. z* v: F# @3 e3 y" s
: C  Z& f0 I& q

) P; Q0 P5 T% w6 ^2 h& v" p标  签 战争 | 历史0 r: R! b0 H) o, e7 M6 c' q

$ V2 I- x% |4 P! ~8 }) T简  介  
- \4 C3 g$ Y/ h. _7 c, M; j- O
  v0 D% _9 C' x' k  The story of nobleman-turned-outlaw hero who was crowned king of Scots in the 14th century.- q2 |  {* U, H- O: C" R. l
  1. Video; g/ ?- g" b& g9 l( \
  2. ID                                       : 1
    % j* r3 s! E# n; }$ t
  3. Format                                   : AVC. L9 Q1 K* b* A5 A% F4 \
  4. Format/Info                              : Advanced Video Codec+ C  _4 }, |2 y. p! p3 h! d* D
  5. Format profile                           : High@L4
    6 W7 ?' }9 t9 w4 R5 \0 Z- y
  6. Format settings                          : CABAC / 5 Ref Frames
    ) S3 S( n4 E5 o- k8 V: ?
  7. Format settings, CABAC                   : Yes
    ; @3 n% W( e- [% Z0 e9 i
  8. Format settings, Reference frames        : 5 frames
    ) B5 D+ s. l0 K, |- p5 X/ ^
  9. Codec ID                                 : V_MPEG4/ISO/AVC0 g6 @7 V& D5 S- X# a6 t6 w7 ?
  10. Duration                                 : 2 h 3 min# X" O+ m! D# [( a& f
  11. Bit rate                                 : 4 817 kb/s
    5 c5 I, T/ R6 k& C
  12. Width                                    : 1 280 pixels
    ; {; F( V" G/ n( o7 L7 Q+ e5 B
  13. Height                                   : 536 pixels6 C1 O1 g( r$ k/ n) `; A8 a
  14. Display aspect ratio                     : 2.40:1
    & @0 d' g" [& O& S- v+ }. I
  15. Frame rate mode                          : Constant
    ; E8 z# A. C, `4 W% T2 G/ w
  16. Frame rate                               : 24.000 FPS
    # `4 i( ^3 E4 ]3 ?0 h" l
  17. Color space                              : YUV
    1 ^2 y8 u$ j: d5 }% M
  18. Chroma subsampling                       : 4:2:0
    + O6 D2 ]: T; q
  19. Bit depth                                : 8 bits+ N; D7 M, v! `, [
  20. Scan type                                : Progressive  h& q6 p2 O) R
  21. Bits/(Pixel*Frame)                       : 0.2932 g! u7 X  {8 S; s/ K0 e+ {
  22. Stream size                              : 4.05 GiB (74%)) \3 \, R$ U6 O! U$ N
  23. Writing library                          : x264 core 158 r2984 3759fcb% {' H' q- f8 W
  24. Encoding settings                        : cabac=1 / ref=5 / deblock=1:-3:-3 / analyse=0x3:0x113 / me=umh / subme=8 / psy=1 / psy_rd=1.00:0.00 / mixed_ref=1 / me_range=24 / chroma_me=1 / trellis=2 / 8x8dct=1 / cqm=0 / deadzone=21,11 / fast_pskip=1 / chroma_qp_offset=-2 / threads=17 / lookahead_threads=2 / sliced_threads=0 / nr=0 / decimate=1 / interlaced=0 / bluray_compat=0 / constrained_intra=0 / bframes=3 / b_pyramid=2 / b_adapt=2 / b_bias=0 / direct=3 / weightb=1 / open_gop=0 / weightp=2 / keyint=240 / keyint_min=24 / scenecut=40 / intra_refresh=0 / rc_lookahead=50 / rc=2pass / mbtree=1 / bitrate=4817 / ratetol=1.0 / qcomp=0.60 / qpmin=0 / qpmax=69 / qpstep=4 / cplxblur=20.0 / qblur=0.5 / ip_ratio=1.40 / aq=3:0.80  k+ o9 _* T8 Q, \. G" S+ `) N
  25. Default                                  : Yes  A0 W0 T! Q, v2 O( }) f& R" O8 i
  26. Forced                                   : No9 O9 e( E3 H/ d! o. m6 f  l9 r
  27. Statistics Tags Issue                    : no_variable_data 1970-01-01 00:00:00 / no_variable_data 2010-02-22 21:41:29
    ( K: L3 x* [9 k6 t
  28. FromStats_BitRate                        : 4815791
    & j, l( g2 _  i% `
  29. FromStats_Duration                       : 02:03:36.917000000
    4 z( _4 O' R& `6 Z3 p
  30. FromStats_FrameCount                     : 178006
    9 Y. a( R7 `, V6 X" B& Z: Q; E
  31. FromStats_StreamSize                     : 4464790439
    7 q# b' F' u: F  J

  32. 3 j- R4 @3 v. V7 D/ E6 h, Z' [  X
  33. Audio
    ; n+ p, k! H3 Q) \
  34. ID                                       : 2) ~  |& I$ q' F* w
  35. Format                                   : DTS7 ?+ W: N' K9 }, W
  36. Format/Info                              : Digital Theater Systems
    . G* X6 B3 R8 B6 J' J6 G
  37. Codec ID                                 : A_DTS
    + p/ a' J8 [2 h0 M# [! n4 x
  38. Duration                                 : 2 h 3 min) Y6 T2 f8 `0 h6 b' Q; v
  39. Bit rate mode                            : Constant
    $ C) F5 b& H, p: _
  40. Bit rate                                 : 1 509 kb/s
    2 f2 [) }9 o. |! z
  41. Channel(s)                               : 6 channels& {) z# ^; k: M9 k9 X- H
  42. Channel layout                           : C L R Ls Rs LFE
    + i# F' l$ a9 p9 \$ I6 x# b
  43. Sampling rate                            : 48.0 kHz, P- j6 P% S4 r' U  P* _" W3 I
  44. Frame rate                               : 93.750 FPS (512 SPF)
      P) a. n- m$ C+ e
  45. Bit depth                                : 24 bits* Q) l2 |, S6 u
  46. Compression mode                         : Lossy, x- @1 G" x- C
  47. Stream size                              : 1.30 GiB (24%)
    # h. i# z+ B  `  v
  48. Language                                 : English! C( Q7 }  A, i& z1 d
  49. Default                                  : Yes; T- ~: x1 f) |9 Y
  50. Forced                                   : No0 e9 O# U! l" i' I
  51. Statistics Tags Issue                    : no_variable_data 1970-01-01 00:00:00 / no_variable_data 2010-02-22 21:41:29
    6 I, e  V3 A: y6 F3 N
  52. FromStats_BitRate                        : 15089991 N+ u& s4 ?9 g
  53. FromStats_Duration                       : 02:03:36.918000000
    " s& F  u" I9 K
  54. FromStats_FrameCount                     : 695336
    5 K6 s" {% _4 u$ C# C7 R
  55. FromStats_StreamSize                     : 1399016032* x2 d2 K$ q! ~. Y' g; A! E! @
  56. ( j# c5 m0 V5 C8 Q. v
  57. Menu
    0 W6 m# c; \. N9 r
  58. 00:00:00.000                             : en:Chapter 013 A) a9 [  Z* o1 a5 g8 w
  59. 00:18:55.792                             : en:Chapter 02
    3 D1 m* \7 C; ~# w2 s% V' i& n
  60. 00:31:47.833                             : en:Chapter 03
    1 t1 o+ L# j; n
  61. 00:52:01.167                             : en:Chapter 04
    2 r/ e( O! o" [  B9 d/ [4 ^0 Z8 R2 {
  62. 01:13:24.417                             : en:Chapter 05
    % ~9 R, j7 N; i5 G$ l- J
  63. 01:35:34.042                             : en:Chapter 06
复制代码
" e' F* L% r- W1 O" H3 z! W
罗伯特·布鲁斯 Robert.the.Bruce.2019.720p.BluRay.x264-EiDER 5.46GB-2.png 3 r  b! D9 e3 B

$ M- M% G' t' _6 D1 z
- z6 F5 u: |# v$ h' P% Z0 D) f) ^1 r4 R
! R$ ]$ O) B5 o( T3 h* d

4 I- ^5 J# ~# u0 \
% \* x: X. C5 ?5 R6 i& v1 p) _
: B: p9 m, I: K/ J( s. V; L" T7 \$ ?
VIP会员免费任意下载本站所有资源!---点击开通
回复

使用道具 举报

级别:一举成名 Lv.7

注册时间
2019-4-24
最后登录
2019-11-19
听众
13
收听
0
主题
0
蓝光币
197 枚
贡献
0 点
发表于 2019-11-7 08:16:47 | 显示全部楼层
楼主发贴辛苦了,谢谢楼主分享!我觉得中国高清电影网是注册对了!
VIP会员免费任意下载本站所有资源!---点击开通
回复

使用道具 举报

级别:荣升主角 Lv.5

注册时间
2018-2-26
最后登录
2019-11-20
听众
15
收听
0
主题
0
蓝光币
272 枚
贡献
0 点
发表于 2019-11-7 09:38:12 | 显示全部楼层

; G( U1 }- B6 G5 d# q既然你诚信诚意的推荐了,那我就勉为其难的看看吧!中国高清电影网不走平凡路。
VIP会员免费任意下载本站所有资源!---点击开通
回复

使用道具 举报

懒得打字嘛,点击右侧快捷回复 【右侧内容,后台自定义】
您需要登录后才可以回帖 登录 | 立即注册

本版积分规则

QQ|Archiver|手机版|小黑屋| 中国高清网 |网站地图

GMT+8, 2019-11-20 10:13 , Processed in 0.231552 second(s), 37 queries .

Powered by HDchina X3.4

Copyright 2017-2019©HDchina.All right reserved

返回顶部 联系我们