查看: 36|回复: 1

[剧情片] 婚礼之后/你愿意嫁给我老公吗? After.The.Wedding.2019.720p.BluRay.x264-AAA 4.37GB

[复制链接]

 成长值: 3210

级别:资源管理组

注册时间
2017-10-20
最后登录
2019-11-20
听众
1
收听
0
主题
87221
蓝光币
63018 枚
贡献
11580 点
发表于 2019-11-6 15:32:22 | 显示全部楼层 |阅读模式
153157ryjkagu8o3jk5nog.png
# F3 c5 _( u/ H; l" K/ q; _# w5 m# o
译  名 婚礼以后 / 你愿意嫁给我老公吗?(台): ^: {; {; C9 \
片  名 After the Wedding
9 H$ F/ y& k1 D% i* q9 N年  代 2019
# d) g6 D1 T  I9 [产  地 美国* y5 D9 s: E& Q( Y8 O
类  别 剧情
# o1 R( o% Y& b( t) ?' J9 e语  言 英语
6 o/ ]" ?" i* r/ E! w  H上映日期 2019-01-24(圣丹斯电影节) / 2019-08-09(美国)
$ ]; C2 k8 s7 ^6 V- o& o; yIMDb评分  6.0/10 from 1082 users
. O7 x( w. S, L  E9 |. ^8 T' QIMDb链接  https://www.imdb.com/title/tt79856925 T& x" Z& }+ `5 g5 ]
豆瓣评分 6.9/10 from 61 users
3 N# `6 r: X( A+ W& b; P豆瓣链接 https://movie.douban.com/subject/30142420/
) _4 U0 O2 l$ d! c* Z片  长 110分钟. [- B+ i" x, N; O3 v/ s- t
导  演 巴特·弗伦德里希 Bart Freundlich
- g; q4 U' j& ]. j4 x0 }) |编  剧 巴特·弗伦德里希 Bart Freundlich / 苏珊娜·比尔 Susanne Bier / 安诺斯·托马斯·延森 Anders Thomas Jensen
) c' U2 x% |' h0 P/ L主  演 朱丽安·摩尔 Julianne Moore; x' c9 f6 @5 b2 X5 O1 A3 r: E
       米歇尔·威廉姆斯 Michelle Williams0 ~; x; ~% x  B3 X5 l
       比利·克鲁德普 Billy Crudup
. k0 M; r  P! f% i       威尔·切斯 Will Chase# `" b5 p- h. c! a
       桃乐丝·麦卡锡 Doris McCarthy
$ S: Z  n$ v" M2 E0 K1 G       艾比·奎因 Abby Quinn
9 {" k) h- I  s8 F- {       伊萨·戴维斯 Eisa Davis
2 E" R! l3 j% G5 R- ^       艾奇·罗伯逊 Azhy Robertson' e" t, I# S, R" N
       亚历克斯·克兰默 Alex Cranmer
; _# i- q8 y; d) T       苏珊·布莱克威尔 Susan Blackwell
! A$ ~% @, _5 r6 ~3 ?5 h       Alex Esola8 o# ^$ i# w% S4 f! ]* D& o9 Y% Y* j) G
       Mackenzie Owens3 j$ }+ C' T4 d0 }- i
       Eric D. Hill Jr.
" i8 e: u" u7 c$ k       Jeff Kim! l, H; A* l. N: Y
       Ron Simons
0 z& U6 n0 [$ z5 g3 \5 z       Ruth Barrie( M+ G# _. ~. E3 P8 @5 s) q

6 c1 J; `' E- t/ r9 E
0 W6 R7 e9 @  Y# ], o; d/ H3 [% S标  签 美国 | JulianneMoore | 剧情 | 2019 | MichelleWilliams | 朱丽安·摩尔 | 圣丹斯电影节 | 电影+ r5 M7 M8 x5 c& Y' A% f

4 O, i5 F3 y3 W* u1 a$ [9 N% ^简  介  
: a/ J2 X& I" o& q( m- g6 _7 r& J0 n
  朱丽安·摩尔将出演新版苏珊娜·比尔作品[婚礼以后]。这部新片由咩姨老公巴特·弗伦德里希执导,故事将重新构建为两位女主在纽约发生的故事(原作俩男主是麦斯·米科尔森和罗夫·拉斯加德[doge])。摩尔将饰演成功经营媒体公司的女富豪特丽莎·杨,碰到伊莎贝尔以后,她的生活发生了意想不到的改变。伊莎贝尔在印度加尔各答经营一家孤儿院,她来到美国寻觅一位捐助者。Cornerstone Films将在柏林电影节的欧洲电影市场买卖这一项目,并于今春起头启动。
6 P4 y% Z  q( }3 q! p9 }) }2 l  t
  1. Video1 p2 b$ e+ ~! n1 j3 u
  2. ID                                       : 1
    # ?8 ^  ~9 U! Q8 }* k, ~
  3. Format                                   : AVC
    * `- z' F( C- n. h
  4. Format/Info                              : Advanced Video Codec
    % P: G, n/ p  @/ v  H
  5. Format profile                           : High@L4
    9 R* Z( q4 K+ k3 _) o
  6. Format settings                          : CABAC / 5 Ref Frames
    - g# t6 M! _( I- ]' T
  7. Format settings, CABAC                   : Yes
    4 a7 Z  y5 F+ l, B- A) [% G0 A
  8. Format settings, Reference frames        : 5 frames5 ~3 m$ _6 U" f5 ^+ g% U! p. {
  9. Codec ID                                 : V_MPEG4/ISO/AVC  V1 K. u* a/ X- A& T/ w4 K
  10. Duration                                 : 1 h 52 min9 P& F6 ~' o/ |+ A& `' m* c% V
  11. Bit rate                                 : 4 072 kb/s, m! T: V- v+ R$ i( S) C
  12. Width                                    : 1 280 pixels
    / ]1 r  V+ p! {2 C' X
  13. Height                                   : 536 pixels: ]; g6 y1 W' `! w7 P+ C" z
  14. Display aspect ratio                     : 2.40:1  }5 O% L$ h2 c1 n" }4 K( v
  15. Frame rate mode                          : Constant
    0 Z9 O6 ?2 o9 p# p  z5 x2 C  y1 f
  16. Frame rate                               : 23.976 (24000/1001) FPS+ d1 I; o8 d" g4 j
  17. Color space                              : YUV# N5 B' w; a( w& E. j, J) x- }
  18. Chroma subsampling                       : 4:2:0
    & C" y4 `0 e5 p8 M( ^* E: U
  19. Bit depth                                : 8 bits
    8 G) ]* a+ f8 W, U5 M
  20. Scan type                                : Progressive  E- x7 ?  W+ X2 @7 P; r1 @6 t
  21. Bits/(Pixel*Frame)                       : 0.248
    " d- G$ E6 c: N" q3 n, M
  22. Stream size                              : 3.19 GiB (73%)" Y5 I# e- o8 C, |& _& h7 g
  23. Title                                    : After.The.Wedding.2019.720p.BluRay.x264-AAA
    & ?9 M: O) \3 Y/ ~7 W
  24. Writing library                          : x264 core 157 r2969 d4099dd4 u& V3 e1 x) N5 O5 A
  25. Encoding settings                        : cabac=1 / ref=5 / deblock=1:0:0 / analyse=0x3:0x113 / me=umh / subme=8 / psy=1 / psy_rd=1.00:0.00 / mixed_ref=1 / me_range=16 / chroma_me=1 / trellis=1 / 8x8dct=1 / cqm=0 / deadzone=21,11 / fast_pskip=1 / chroma_qp_offset=-2 / threads=16 / lookahead_threads=2 / sliced_threads=0 / nr=0 / decimate=1 / interlaced=0 / bluray_compat=0 / constrained_intra=0 / bframes=3 / b_pyramid=2 / b_adapt=2 / b_bias=0 / direct=3 / weightb=1 / open_gop=0 / weightp=2 / keyint=240 / keyint_min=23 / scenecut=40 / intra_refresh=0 / rc_lookahead=50 / rc=2pass / mbtree=1 / bitrate=4072 / ratetol=1.0 / qcomp=0.60 / qpmin=0 / qpmax=69 / qpstep=4 / cplxblur=20.0 / qblur=0.5 / ip_ratio=1.40 / aq=1:1.00- }: m; m. M: Q" ?: K0 }& F
  26. Default                                  : Yes: b$ M/ Q3 v6 |+ B" y7 x0 u. u  @& C( ~
  27. Forced                                   : No
    2 D9 R. i; P3 u! ~: F. x5 r! K

  28. 4 H9 ]( M/ ]5 E$ X3 \
  29. Audio" s" {" f, l) d' {& p2 j1 Y
  30. ID                                       : 2
    9 a. h4 l( S. m0 k! I6 k) `! l
  31. Format                                   : DTS( S- G( N/ J+ p7 C* O: ?
  32. Format/Info                              : Digital Theater Systems3 U! }' W. E! G9 |! x5 p% i
  33. Codec ID                                 : A_DTS
    9 c" e7 N5 @' c$ s" `1 n4 @
  34. Duration                                 : 1 h 52 min( W1 t# R" M5 I0 P+ {1 r
  35. Bit rate mode                            : Constant% {! J) v* o: d7 e
  36. Bit rate                                 : 1 509 kb/s1 l% I. h8 b8 s
  37. Channel(s)                               : 6 channels6 }7 m0 l- P7 Y* e) r
  38. Channel layout                           : C L R Ls Rs LFE
    ' F3 e# s& Y1 F- H5 m
  39. Sampling rate                            : 48.0 kHz
    6 \" P2 F1 F. K, ~: k: A- d" m5 `
  40. Frame rate                               : 93.750 FPS (512 SPF)
    $ d: S# r5 B8 w) s
  41. Bit depth                                : 24 bits
    2 g1 y* u* @1 T* U1 ?+ l
  42. Compression mode                         : Lossy2 k$ F  C; \% h  v
  43. Stream size                              : 1.18 GiB (27%)
    - b2 B0 w1 a8 Z3 c
  44. Title                                    : Eng+ f( T- [, ?, {4 K
  45. Language                                 : English
    / o6 e7 E  G# e3 L# I- d4 x; v
  46. Default                                  : Yes8 m9 r. b5 c1 I5 p+ {* p
  47. Forced                                   : No. `0 @% ~  x; w) A+ z  \
  48. ' q% t$ k9 _0 K7 i5 ]
  49. Menu
    7 H6 q$ P5 ?" Z' ^. r0 n+ V$ o
  50. 00:00:00.000                             : en:00:00:00.000' R1 `) H6 ?6 S. i" u0 ]$ C
  51. 00:08:05.026                             : en:00:08:05.026. G8 K, f: r7 P" O, A2 d2 o% G: }3 ^
  52. 00:15:13.996                             : en:00:15:13.996- h9 J2 X3 Y4 |/ W
  53. 00:22:06.992                             : en:00:22:06.992
    1 W7 J, e0 o. {8 `: C! u; H' G* f
  54. 00:30:10.642                             : en:00:30:10.6428 Q+ M+ Y9 ?( F- c9 P
  55. 00:38:53.581                             : en:00:38:53.581
    - u" D, i1 ]. h7 C2 W1 W' Z4 s
  56. 00:47:39.690                             : en:00:47:39.690* {+ r3 h: l8 ?  B' J& s
  57. 00:53:23.075                             : en:00:53:23.075
    " n9 H# B4 J/ a. d- a7 I( }
  58. 01:01:21.219                             : en:01:01:21.219
    7 Q* f& h0 \" N! p1 s
  59. 01:03:27.012                             : en:01:03:27.012
    , H. h7 l% Y' N$ X6 q
  60. 01:08:04.497                             : en:01:08:04.497
    ) T: r6 k" x, e! m9 B" O
  61. 01:13:56.057                             : en:01:13:56.0577 }6 b& ^& l; Q( f9 j/ c
  62. 01:17:27.518                             : en:01:17:27.518
    7 Q' @) b4 o* R  a' }* B. R) V
  63. 01:23:40.307                             : en:01:23:40.307" J6 X8 a* s$ H: _
  64. 01:31:48.461                             : en:01:31:48.461
    - p( \: Q; @. f. Q0 G1 v& Z
  65. 01:38:51.968                             : en:01:38:51.968
复制代码
, q: \' W* Y! P7 B2 O4 W
婚礼以后/你愿意嫁给我老公吗? After.The.Wedding.2019.720p.BluRay.x264-AAA 4.37GB-2.png
+ n" U! J, m- ?9 E! K5 r* [( M: r* Y  Y3 }! ?& c1 w( [

/ m- V- U& a+ `  ~" Q6 y+ c, F
, l; S5 m7 |- w( ~/ D# y, I9 ^7 j5 s9 |% r5 P6 V7 Q; K0 p7 B
4 L  C8 D. ^8 p& G2 i# p, |
5 _" i# _* E$ w( ]" G7 r  L9 Y2 K7 G
( U# O# m4 C" a$ C8 U  t/ ?$ M# L9 y1 H) V
VIP会员免费任意下载本站所有资源!---点击开通
回复

使用道具 举报

级别:一举成名 Lv.7

注册时间
2019-4-24
最后登录
2019-11-19
听众
13
收听
0
主题
0
蓝光币
197 枚
贡献
0 点
发表于 2019-11-7 08:17:18 | 显示全部楼层
楼主发贴辛苦了,谢谢楼主分享!我觉得中国高清电影网是注册对了!
VIP会员免费任意下载本站所有资源!---点击开通
回复

使用道具 举报

懒得打字嘛,点击右侧快捷回复 【右侧内容,后台自定义】
您需要登录后才可以回帖 登录 | 立即注册

本版积分规则

QQ|Archiver|手机版|小黑屋| 中国高清网 |网站地图

GMT+8, 2019-11-20 09:47 , Processed in 0.241777 second(s), 37 queries .

Powered by HDchina X3.4

Copyright 2017-2019©HDchina.All right reserved

返回顶部 联系我们